Ashiana.Nargis.Raj.Kapoor.1952.DvDrip.1CD.X264.AAC.RRG.DADA.DBBIANS.Com.mp4

Size 432.481 MB   0 seeders     Added 2013-03-31 21:34:37

Stream torrent
Starting‚Ä• You need BitLord! Get it from 1BitLord.com
To download or stream you need BitLord. Visit them at BitLord.com
-: Cover :- 
 
image.html

-: Screens :-
 
image.html 
image.html 
image.html 
image.html

-: Info :-  


General

Format                           : Mp4 Video
File size                        : 412 MiB
Duration                         : 1h 44mn
Overall bit rate                 : 554 Kbps


Video
Format                           : AVC
Format/Info                      : Advanced Video Codec
Format profile                   : Main@L3.0
Format settings, CABAC           : Yes
Format settings, ReFrames        : 3 frames
Duration                         : 1h 44mn
Bit rate                         : 417 Kbps
Width                            : 656 pixels
Height                           : 480 pixels
Display aspect ratio             : 4:3
Frame rate mode                  : Constant
Frame rate                       : 25.000 fps
Color space                      : YUV
Chroma subsampling               : 4:2:0
Bit depth                        : 8 bits
Scan type                        : Progressive
Bits/(Pixel*Frame)               : 0.053
Stream size                      : 311 MiB (75%)

Audio
Format                           : AAC
Format/Info                      : Advanced Audio Codec
Format version                   : Version 4
Format profile                   : LC
Format settings, SBR             : No
Duration                         : 1h 44mn
Bit rate                         : 129 Kbps
Channel(s)                       : 2 channels
Channel positions                : Front: L R
Sampling rate                    : 44.1 KHz
Bit depth                        : 16 bits
Stream size                      : 95.8 MiB (23%)


 
http://www.imdb.com/title/tt0178205/


Cast & Crew
Cast

    Nargis
    Raj Kapoor
    Om Sharma
    Shivraj
    Mohana
    Kusum
    Randhu
    Baby Sadana
    Gaurang

Directors

    B.Trilochan

Producers

    B.Swinder Sabarwal

Writers

    Arjun Dev Rashik

		
Ashiana.Nargis.Raj.Kapoor.1952.DvDrip.1CD.X264.AAC.RRG.DADA.DBBIANS.Com.mp4 432.481 MB
Gathering some info...

Register and log in Isohunt and see no captcha anymore!

4000 symbols left
Hash f4c8fa53de99a374167c1bb9541aa11b7cb38f69