Le Miracle de l'amour

Le Miracle de l'amour (1995)

Comedy, Drama, Music

Full description

ELOGE_DE_L_AMOUR.mkv

Size 1.844 GB   4 seeders     Added 2013-04-01 01:02:38

Stream torrent
Starting‥ You need BitLord! Get it from 1BitLord.com
To download or stream you need BitLord. Visit them at BitLord.com
From Jean-Luc Godard, possibly the most influential European film director of all time comes IN PRAISE OF LOVE, a mesmerizing and lyrical meditation on love, and the role history and memory play in shaping human consciousness, past and present.
Structured in two parts, the film opens in Paris, where the young artist Edgar is developing a project on the four stages of a love affair meeting, sexual passion, separation. and rediscovery. During the casting process, Edgar discovers a beautiful young woman who he is convinced he has met before. In the second part, set two years earlier, Edgar interviews an elderly couple former Resistance fighters during the war only to find that their memories are being bought up for a Steven Spielberg blockbuster. Linking the two parts is Edgar's relationship with the enigmatic woman he met and re-encounters.

IN PRAISE OF LOVE is a combative but tender work that stubbornly asserts the importance of love, art and memory. A film of great intellectual freedom, elusive meanings and overwhelming visual beauty, Godard has never seemed more young, fresh and original. (amazon.com)


Forty-three years since the release of À Bout de Souffle (Out of Breath), Jean-Luc Godard has still got it. And like his first film, the English title (in that case, Breathless) incorrectly represents the essence of this intricate work. "In Praise of Love" suggests a joyous celebration, but in actuality, Éloge de l'Amour (Eulogy for Love) is a meditation on life, love, and particularly loss. The 2001 film is highly reminiscent of Godard's films from the '60s in structure and attitude. On the surface we may be watching the making of a film (similar to Le Mépris), but in actuality, we are deep in the exploration of love's melancholic elements. In the typical Godard style, In Praise of Love's essence is told through its characters' conversational criticisms towards art, literature, philosophy, politics, capitalism, and cinema, all displayed through the unstructured use of digital video that has the director's distinct, rebellious look and feel. It is amazing that at 73 Godard still has the capability to successfully redefine how we look at film. In Praise of Love definitely requires repeat viewings and may not be for everyone, but for those interested it is well worth it. (-Rob Bracco - Editorial Reviews - Amazon.com)


Unique ID : 58759888810195139741893515719335746100 (0x2C34BE313D6D03208E94AACF24901A34)
Complete name : /home/gj5/home/data/ELOGE_DE_L_AMOUR.mkv
Format : Matroska
Format version : Version 2
File size : 1.72 GiB
Duration : 1h 34mn
Overall bit rate : 2 609 Kbps
Writing application : HandBrake 0.9.5
Writing library : libmkv 0.6.4.1

Video
ID : 1
Format : AVC
Format/Info : Advanced Video Codec
Format profile : High@L3.1
Format settings, CABAC : Yes
Format settings, ReFrames : 5 frames
Format settings, GOP : M=1, N=11
Codec ID : V_MPEG4/ISO/AVC
Duration : 1h 34mn
Bit rate : 2 109 Kbps
Width : 720 pixels
Height : 576 pixels
Display aspect ratio : 4:3
Frame rate mode : Variable
Frame rate : 25.000 fps
Standard : PAL
Color space : YUV
Chroma subsampling : 4:2:0
Bit depth : 8 bits
Scan type : Progressive
Bits/(Pixel*Frame) : 0.203
Stream size : 1.39 GiB (81%)
Writing library : x264 core 112
Encoding settings : cabac=1 / ref=6 / deblock=1:-2:-2 / analyse=0x3:0x133 / me=umh / subme=9 / psy=1 / psy_rd=1.00:0.00 / mixed_ref=1 / me_range=24 / chroma_me=1 / trellis=2 / 8x8dct=1 / cqm=0 / deadzone=21,11 / fast_pskip=0 / chroma_qp_offset=-2 / threads=3 / sliced_threads=0 / nr=0 / decimate=1 / interlaced=0 / constrained_intra=0 / bframes=6 / b_pyramid=1 / b_adapt=2 / b_bias=0 / direct=3 / weightb=1 / open_gop=0 / weightp=2 / keyint=250 / keyint_min=25 / scenecut=40 / intra_refresh=0 / rc_lookahead=50 / rc=crf / mbtree=1 / crf=19.0 / qcomp=0.60 / qpmin=3 / qpmax=51 / qpstep=4 / ip_ratio=1.40 / aq=1:1.20
Language : English
Color primaries : BT.601-6 525, BT.1358 525, BT.1700 NTSC, SMPTE 170M
Transfer characteristics : BT.709-5, BT.1361
Matrix coefficients : BT.601-6 525, BT.1358 525, BT.1700 NTSC, SMPTE 170M

Audio
ID : 2
Format : AC-3
Format/Info : Audio Coding 3
Mode extension : CM (complete main)
Codec ID : A_AC3
Duration : 1h 34mn
Bit rate mode : Constant
Bit rate : 448 Kbps
Channel(s) : 6 channels
Channel positions : Front: L C R, Side: L R, LFE
Sampling rate : 48.0 KHz
Bit depth : 16 bits
Compression mode : Lossy
Stream size : 302 MiB (17%)
Language : French

Text
ID : 3
Format : VobSub
Codec ID : S_VOBSUB
Codec ID/Info : The same subtitle format used on DVDs
Language : English

Menu
00:00:00.000 : Chapter 1
00:07:21.480 : Chapter 2
00:16:02.000 : Chapter 3
00:25:49.080 : Chapter 4
00:32:32.600 : Chapter 5
00:38:02.800 : Chapter 6
00:49:33.360 : Chapter 7
00:58:13.880 : Chapter 8
01:05:35.360 : Chapter 9
01:14:21.080 : Chapter 10
01:22:25.200 : Chapter 11
01:28:50.520 : Chapter 12


		
ELOGE_DE_L_AMOUR.mkv 1.844 GB
Gathering some info...

Register and log in Isohunt and see no captcha anymore!

4000 symbols left
Hash 7f04f5828888277173ec23e922e5b4fa4d30195e

Related torrents for "ELOGE_DE_L_AMOUR.mkv"