imdb
rating

6.1
Welcome to the Punch

Welcome to the Punch (2013)

Action, Adventure, Crime

Full description

Welcome.To.The.Punch.2013.720p.WEBrip XVID AC3 BHRG

Size 2.629 GB   0 seeders     Added 2013-04-01 01:04:38

Stream torrent
Starting‥ You need BitLord! Get it from BitLord.com
To download or stream you need BitLord. Visit them at BitLord.com
	Format                                   : AVI
Format/Info                              : Audio Video Interleave
Format profile                           : OpenDML
File size                                : 2.43 GiB
Duration                                 : 1h 39mn
Overall bit rate                         : 3 490 Kbps
Writing library                          : VirtualDub build 30091/release

Video
ID                                       : 0
Format                                   : MPEG-4 Visual
Format profile                           : Advanced Simple@L5
Format settings, BVOP                    : 2
Format settings, QPel                    : No
Format settings, GMC                     : No warppoints
Format settings, Matrix                  : Default (H.263)
Muxing mode                              : Packed bitstream
Codec ID                                 : XVID
Codec ID/Hint                            : XviD
Duration                                 : 1h 39mn
Bit rate                                 : 3 095 Kbps
Width                                    : 1 280 pixels
Height                                   : 544 pixels
Display aspect ratio                     : 2.35:1
Frame rate                               : 23.976 fps
Color space                              : YUV
Chroma subsampling                       : 4:2:0
Bit depth                                : 8 bits
Scan type                                : Progressive
Compression mode                         : Lossy
Bits/(Pixel*Frame)                       : 0.185
Stream size                              : 2.16 GiB (89%)
Writing library                          : XviD 1.2.1 (UTC 2008-12-04)

Audio
ID                                       : 1
Format                                   : AC-3
Format/Info                              : Audio Coding 3
Mode extension                           : CM (complete main)
Format settings, Endianness              : Big
Codec ID                                 : 2000
Duration                                 : 1h 39mn
Bit rate mode                            : Constant
Bit rate                                 : 384 Kbps
Channel(s)                               : 6 channels
Channel positions                        : Front: L C R, Side: L R, LFE
Sampling rate                            : 48.0 KHz
Bit depth                                : 16 bits
Compression mode                         : Lossy
Stream size                              : 274 MiB (11%)

Screens: 
image 
image 
image 
image		
Welcome.To.The.Punch.2013.720p.WEBrip XVID AC3 BHRG/www.RARBG.com.txt 45 B
Welcome.To.The.Punch.2013.720p.WEBrip XVID AC3 BHRG/Welcome.To.The.Punch.2013.720p.WEBrip XVID AC3 BHRG.avi 2.612 GB
Welcome.To.The.Punch.2013.720p.WEBrip XVID AC3 BHRG/Welcome.To.The.Punch.2013.720p.WEBrip XVID AC3 BHRG sample.avi 17.214 MB
Gathering some info...

Register and log in Isohunt and see no captcha anymore!

4000 symbols left
Hash 1ec11d780cc907e601437ba65c0b63609c02fe8b

Related torrents for "Welcome.To.The.Punch.2013.720p.WEBrip XVID AC3 BHRG"

Torrent search:

hd web-rip 2013