imdb
rating

7.8
Silver Linings Playbook

Silver Linings Playbook (2012)

Comedy, Drama, Romance

Full description

[ www.Speed.Cd ] - Silver Linings Playbook 2012 BRRip XviD Ac3 Feel-Free Verified

Size 1.348 GB   0 seeders     Added 2013-04-01 10:46:36

Stream torrent
Starting‥ You need BitLord! Get it from BitLord.com
To download or stream you need BitLord. Visit them at BitLord.com
-
 
http://www.Speed. Cd       the fast  and The Hottest Private Tracker on the net 
http://www.Speed. Cd

Please Seed back to make the speed Faster!!
 ............ NFO .............
-
 
http://www.Speed. Cd[img]image[/img]
[img]image[/img]


Genre:Comedy | Drama | Romance
Language:English
IMDb:http://www.imdb.com/title/tt1045658/
Source:720p BluRay x264-iNFAMOUS Thanks
Encoder:Tony

Format                                   : AVI
Format/Info                              : Audio Video Interleave
File size                                : 1.25 GiB
Duration                                 : 2h 2mn
Overall bit rate                         : 1 471 Kbps

Video
ID                                       : 0
Format                                   : MPEG-4 Visual
Format profile                           : Advanced Simple@L5
Format settings, BVOP                    : 1
Format settings, QPel                    : No
Format settings, GMC                     : No warppoints
Format settings, Matrix                  : Default (H.263)
Codec ID                                 : XVID
Codec ID/Hint                            : XviD
Duration                                 : 2h 2mn
Bit rate                                 : 1 078 Kbps
Width                                    : 624 pixels
Height                                   : 264 pixels
Display aspect ratio                     : 2.35:1
Frame rate                               : 23.976 fps
Color space                              : YUV
Chroma subsampling                       : 4:2:0
Bit depth                                : 8 bits
Scan type                                : Progressive
Compression mode                         : Lossy
Bits/(Pixel*Frame)                       : 0.273
Stream size                              : 942 MiB (73%)
Writing library                          : XviD 1.2.1 (UTC 2008-12-04)

Audio
ID                                       : 1
Format                                   : AC-3
Format/Info                              : Audio Coding 3
Mode extension                           : CM (complete main)
Codec ID                                 : 2000
Duration                                 : 2h 2mn
Bit rate mode                            : Constant
Bit rate                                 : 384 Kbps
Channel(s)                               : 6 channels
Channel positions                        : Front: L C R, Side: L R, LFE
Sampling rate                            : 48.0 KHz
Bit depth                                : 16 bits
Compression mode                         : Lossy
Stream size                              : 335 MiB (26%)
Alignment                                : Aligned on interleaves
Interleave, duration                     : 42 ms (1.00 video frame)
Interleave, preload duration             : 512 ms
   
Plot:
  After a stint in a mental institution, former teacher Pat Solitano moves back in with his parents and tries to reconcile with his ex-wife. Things get more challenging when Pat meets Tiffany, a mysterious girl with problems of her own.

TRAILER:



Greets:
 CRYS,INSPiRAL,IMAGINE,LKRG,ADTRG,FXG,3Li,FLAWL3SS,CrEwSaDe,TA,iLLUSiON,EMBER,HOPE,GooN,BBnRG,NOGRP,ETRG,BHRG,iLLUMiNATi,MiSTERE.ViSiON,DTRG SAFCuk009,LU,TheFalcon007,MYSTiC,PrisM,Noir,WBZ,LAP,Rx,Kingdom,SAFCuk009+Fabreezy,HDLiTE,TWiZTED,ETRG.ELEKTRI4KA,MAGNAT,CM8
                And to all the other p2p grps past and present		
[ www.Speed.Cd ] - Silver Linings Playbook 2012 BRRip XviD Ac3 Feel-Free/Silver Linings Playbook 2012 BRRip XviD Ac3 Feel-Free.avi 1.347 GB
[ www.Speed.Cd ] - Silver Linings Playbook 2012 BRRip XviD Ac3 Feel-Free/Silver Linings Playbook 2012 BRRip XviD Ac3 Feel-Free.nfo 3.485 KB
[ www.Speed.Cd ] - Silver Linings Playbook 2012 BRRip XviD Ac3 Feel-Free/vlcsnap-2013-04-01-06h25m20s156.png 222.404 KB
Gathering some info...

Register and log in Isohunt and see no captcha anymore!

4000 symbols left
Hash 12133e0110504ef711ccc45572026012554bc696

Related torrents for "[ www.Speed.Cd ] - Silver Linings Playbook 2012 BRRip XviD Ac3 Feel-Free"

Torrent search:

2012 bd