imdb
rating

5.0
Return to Nim's Island

Return to Nim's Island (2013)

Adventure, Family

Full description
quality   dvdrip x264 dvdr

[ www.Speed.Cd ] - Return to Nims Island 2013 DVDRip X264 AC3-VoXHD

Size 1.559 GB   0 seeders     Added 2013-04-01 21:31:36

Stream torrent
Starting‥ You need BitLord! Get it from 1BitLord.com
To download or stream you need BitLord. Visit them at BitLord.com
-
 
http://www.Speed. Cd       the fast  and The Hottest Private Tracker on the net 
http://www.Speed. Cd

Please Seed back to make the speed Faster!!
 ............ NFO .............
-
 
http://www.Speed. CdLanguage: English | Subtitles: N/A
Size: 1.45GB

Video
ID                                       : 1
Format                                   : AVC
Format/Info                              : Advanced Video Codec
Format profile                           : High@L4.1
Format settings, CABAC                   : Yes
Format settings, ReFrames                : 4 frames
Codec ID                                 : V_MPEG4/ISO/AVC
Duration                                 : 1h 29mn
Bit rate                                 : 1 864 Kbps
Width                                    : 720 pixels
Height                                   : 400 pixels
Display aspect ratio                     : 16:9
Frame rate mode                          : Constant
Frame rate                               : 23.976 fps
Color space                              : YUV
Chroma subsampling                       : 4:2:0
Bit depth                                : 8 bits
Scan type                                : Progressive
Bits/(Pixel*Frame)                       : 0.270
Stream size                              : 1.14 GiB (79%)
Writing library                          : x264 core 130 r2273 b3065e6


Audio
ID                                       : 2
Format                                   : AC-3
Format/Info                              : Audio Coding 3
Mode extension                           : CM (complete main)
Format settings, Endianness              : Big
Codec ID                                 : A_AC3
Duration                                 : 1h 29mn
Bit rate mode                            : Constant
Bit rate                                 : 448 Kbps
Channel(s)                               : 6 channels
Channel positions                        : Front: L C R, Side: L R, LFE
Sampling rate                            : 48.0 KHz
Bit depth                                : 16 bits
Compression mode                         : Lossy
Stream size                              : 288 MiB (19%)
Language                                 : English
Default                                  : Yes
Forced                                   : No		
[ www.Speed.Cd ] - Return to Nims Island 2013 DVDRip X264 AC3-VoXHD/Return.to.Nims.Island.2013.DVDRip.X264.AC3-VoXHD.mkv 1.559 GB
[ www.Speed.Cd ] - Return to Nims Island 2013 DVDRip X264 AC3-VoXHD/VoxHD.nfo 2.163 KB
[ www.Speed.Cd ] - Return to Nims Island 2013 DVDRip X264 AC3-VoXHD/www.scenetime.com.txt 55 B
Gathering some info...

Register and log in Isohunt and see no captcha anymore!

4000 symbols left
Hash 9729b2eb25c4ebb3dcb0a84f47126e46b994ad51

Related torrents for "[ www.Speed.Cd ] - Return to Nims Island 2013 DVDRip X264 AC3-VoXHD"

Torrent search:

dvdrip x264 2013