imdb
rating

6.4
Rommel

Rommel (2012)

Action, Drama, History, War

Full description
quality   dvdrip dvdr x264 hd bd hdtv

Rommel 2012 720p BRRip x264 MP4 AAC-CC

Size 3.142 GB   32 seeders     Added 2013-04-02 02:51:43

Stream torrent
Starting‥ You need BitLord! Get it from BitLord.com
To download or stream you need BitLord. Visit them at BitLord.com
 http://www.imdb.com/title/tt2157346/

Source: Rommel.2012.GERMAN.DTS.1080p.BluRay.x264-OldsMan Thanks!

Subs: Dutch, German ( for a few English lines ).

Sample and Screens included.

General
Complete name                            : Rommel 2012 720p BRRip x264 MP4 AAC-CC.mp4
Format                                   : MPEG-4
Format profile                           : Base Media
Codec ID                                 : isom
File size                                : 2.89 GiB
Duration                                 : 1h 58mn
Overall bit rate mode                    : Variable
Overall bit rate                         : 3 490 Kbps
Encoded date                             : UTC 2013-03-31 07:53:56
Tagged date                              : UTC 2013-03-31 07:53:56
Writing application                      : Yamb 2.1.0.0 

Video
ID                                       : 1
Format                                   : AVC
Format/Info                              : Advanced Video Codec
Format profile                           : High@L4.1
Format settings, CABAC                   : Yes
Format settings, ReFrames                : 5 frames
Codec ID                                 : avc1
Codec ID/Info                            : Advanced Video Coding
Duration                                 : 1h 58mn
Bit rate                                 : 3 112 Kbps
Maximum bit rate                         : 30.0 Mbps
Width                                    : 1 280 pixels
Height                                   : 720 pixels
Display aspect ratio                     : 16:9
Frame rate mode                          : Variable
Frame rate                               : 25.000 fps
Minimum frame rate                       : 16.667 fps
Maximum frame rate                       : 25.000 fps
Color space                              : YUV
Chroma subsampling                       : 4:2:0
Bit depth                                : 8 bits
Scan type                                : Progressive
Bits/(Pixel*Frame)                       : 0.135
Stream size                              : 2.57 GiB (89%)
Writing library                          : x264 core 112
Encoding settings                        : cabac=1 / ref=5 / deblock=1:0:0 / analyse=0x3:0x113 / me=hex / subme=7 / psy=1 / psy_rd=1.00:0.00 / mixed_ref=1 / me_range=16 / chroma_me=1 / trellis=1 / 8x8dct=1 / cqm=0 / deadzone=21,11 / fast_pskip=1 / chroma_qp_offset=-2 / threads=3 / sliced_threads=0 / nr=0 / decimate=1 / interlaced=0 / constrained_intra=0 / bframes=5 / b_pyramid=2 / b_adapt=2 / b_bias=0 / direct=1 / weightb=1 / open_gop=0 / weightp=2 / keyint=250 / keyint_min=25 / scenecut=40 / intra_refresh=0 / rc_lookahead=50 / rc=abr / mbtree=1 / bitrate=3112 / ratetol=1.0 / qcomp=0.60 / qpmin=3 / qpmax=51 / qpstep=4 / ip_ratio=1.40 / aq=1:1.00
Encoded date                             : UTC 2013-03-31 19:31:22
Tagged date                              : UTC 2013-03-31 07:56:58
Color primaries                          : BT.709
Transfer characteristics                 : BT.709
Matrix coefficients                      : BT.709

Audio
ID                                       : 2
Format                                   : AAC
Format/Info                              : Advanced Audio Codec
Format profile                           : LC
Codec ID                                 : 40
Duration                                 : 1h 58mn
Bit rate mode                            : Variable
Bit rate                                 : 384 Kbps
Maximum bit rate                         : 715 Kbps
Channel(s)                               : 6 channels
Channel positions                        : Front: L C R, Side: L R, LFE
Sampling rate                            : 48.0 KHz
Compression mode                         : Lossy
Delay relative to video                  : 80ms
Stream size                              : 325 MiB (11%)
Language                                 : German
Encoded date                             : UTC 2013-03-31 07:55:58
Tagged date                              : UTC 2013-03-31 07:56:58

Enjoy...

Coming soon: A Boy, Touch of Evil, Tropa de Elite 2, Quiz Show and more...		
Rommel 2012 720p BRRip x264 MP4 AAC-CC/Sample/Sample.mp4 27.795 MB
Rommel 2012 720p BRRip x264 MP4 AAC-CC/Screens-Info/Rommel 2012 720p BRRip x264 MP4 AAC-CC.mp4_snapshot_01.48.59.png 1.85 MB
Rommel 2012 720p BRRip x264 MP4 AAC-CC/Screens-Info/Rommel 2012 720p BRRip x264 MP4 AAC-CC.mp4_snapshot_00.07.41.png 1.549 MB
Gathering some info...

Register and log in Isohunt and see no captcha anymore!

4000 symbols left
Hash b1139c31df818406357a1d4dbf12259f509e7d65

Related torrents for "Rommel 2012 720p BRRip x264 MP4 AAC-CC"

Torrent search:

x264 hd 2012 bd