AAN.1952.DVDRip.x264.AAC.RRG.DADA.DBBIANS.Com.mkv Verified

Size 1.511 GB   0 seeders     Added 2013-04-02 17:02:36

Stream torrent
Starting‚Ä• You need BitLord! Get it from 1BitLord.com
To download or stream you need BitLord. Visit them at BitLord.com
-: Cover :- 



 
image.html

-: Screens :-






 
image 
image 
image 
image 
image 
image 
image 
image 
image


-: Info :-  
General

Format : Mkv
File size : 1.41 GiB
Duration : 2h 41mn
Overall bit rate : 1 247 Kbps

Video
ID : 1
Format : VP8
Codec ID : V_VP8
Duration : 2h 41mn
Bit rate : 1 060 Kbps
Width : 854 pixels
Height : 480 pixels
Display aspect ratio : 16:9
Frame rate : 1 000.000 fps
Bits/(Pixel*Frame) : 0.003
Stream size : 1.20 GiB (85%)

Audio
ID : 2
Format : Vorbis
Format settings, Floor : 1
Codec ID : A_VORBIS
Duration : 2h 41mn
Bit rate : 128 Kbps
Channel(s) : 2 channels
Sampling rate : 44.1 KHz
Bit depth : 16 bits
Stream size : 148 MiB (10%)
 
http://www.imdb.com/title/tt0044318/

Aan Cast & Crew:

    Banner
    Mehboob Productions

    Release Date
    1 Jan 1952

    Genre
    Romance,Musical,Adventure

    Producer
    Mehboob

    Star Cast
    Dilip Kumar.... Jai Tilak
    Nadira.... Princess Rajshree
    Nimmi.... Mangala
    Murad.... Emperor
    Cuckoo
    Premnath.... Prince Shamsher Singh
    Mukri.... Chandan
    Amir Bano.... Jai's mom
    Sheela Nayak
    Maya
    Abdul
    Neelam Kothari
    Maharaj

    Story / Writers
    R S Choudhary

    Choreographers
    Surya Kumar

    Costume Designers
    Fazal

Music Director

    Naushad Ali

Color
C
Language
Hindi
Director

    Mehboob Khan

Singers

    Shamshad Begum
    Lata Mangeshkar
    Mohammed Rafi

Lyricist

    Shakeel Badayuni

Cinematography

    Fairdoon Irani

Dialogue

    Ali Raza

    Sound
    J P Kaushik

    Music Company
    Saregama-HMV




A Royal Indian family consists of the Emperor Maharaj (Murad, his brother Shamsher Singh (Premnath) and sister Rajshree (Nadira). A poor villager named Jai Tilak (Dilip Kumar) enters a contest to tame Princess Rajshree's horse and after he is successful Shamsher challenges him to a game of fencing. Jai is declared the winner of the fight after much dispute and Shamsher is enraged at losing to a poor villager. Jai then falls in love with Rajshree and tries numurous times to woo her but the princess's arrogance prevents her from revealing her true feelings. Shamsher becomes even more enraged when the Emperor Maharaj reveals that Shamsher is not the heir to his throne after his death and that he plans to free India from dictation and turn to democracy. Shamsher then plans to gain control of the kingdom by killing the Maharajah on the night before he is due to travel to England for a medical procedure. However he is unsuccessful after the Maharajah escapes an attempt on his life by Shamsher's henchmen and disguises himself as a servant in his own palace. Shamsher then sets his eyes on Mangala (Nimmi) who is a village girl and childhood friend of Jai but her love is not reciprocated as he is only in love with princess Rajshree. After Mangala is kidnapped by Shamsher Singh who plans to keep her prisoner in his palace and molest her, Mangala takes a bottle of poison and dies. Jai kills Shamsher in revenge and provokes Princess Rajshree to launch an attack on his village to avenge her brother's death. Jai manages to kidnap Rajshree and sets out to gain her love by taking her into his village and forcing her to live as a peasant girl. Just when Rajshree begins to realise her feelings for Jai, Shamsher Singh who was presumed dead returns to get his revenge against Jai. What will happen to Jai and Rajshree? and Will Shamsher gain control of the Kingdom?
		
AAN.1952.DVDRip.x264.AAC.RRG.DADA.DBBIANS.Com.mkv 1.511 GB
Gathering some info...

Register and log in Isohunt and see no captcha anymore!

4000 symbols left
Hash 9902dc774939a2af66be2cfedd78367a7fb74c76