imdb
rating

6.8
Gangster Squad

Gangster Squad (2013)

Action, Crime, Drama, Thriller

Full description
quality   bd dvdrip telesync dvdr x264 hd cam

Gangster.Squad.2013 WEBRip XViD juggs

Size 743.724 MB   0 seeders     Added 2013-04-02 18:16:39

Stream torrent
Starting‥ You need BitLord! Get it from BitLord.com
To download or stream you need BitLord. Visit them at BitLord.com
Source : WEB DL HDClub (Thanks)

www.imdb.com/title/tt1321870

Format                                   : AVI
Format/Info                              : Audio Video Interleave
File size                                : 703 MiB
Duration                                 : 1h 52mn
Overall bit rate                         : 871 Kbps
Writing library                          : VirtualDub build 32842/release

Video
ID                                       : 0
Format                                   : MPEG-4 Visual
Format profile                           : Advanced Simple@L5
Format settings, BVOP                    : 4
Format settings, QPel                    : No
Format settings, GMC                     : No warppoints
Format settings, Matrix                  : Default (H.263)
Muxing mode                              : Packed bitstream
Codec ID                                 : XVID
Codec ID/Hint                            : XviD
Duration                                 : 1h 52mn
Bit rate                                 : 733 Kbps
Width                                    : 640 pixels
Height                                   : 272 pixels
Display aspect ratio                     : 2.35:1
Frame rate                               : 23.976 fps
Color space                              : YUV
Chroma subsampling                       : 4:2:0
Bit depth                                : 8 bits
Scan type                                : Progressive
Compression mode                         : Lossy
Bits/(Pixel*Frame)                       : 0.176
Stream size                              : 592 MiB (84%)
Writing library                          : XviD 1.2.0.dev47 (UTC 2006-11-01)

Audio
ID                                       : 1
Format                                   : MPEG Audio
Format version                           : Version 1
Format profile                           : Layer 3
Mode                                     : Joint stereo
Mode extension                           : MS Stereo
Codec ID                                 : 55
Codec ID/Hint                            : MP3
Duration                                 : 1h 52mn
Bit rate mode                            : Constant
Bit rate                                 : 128 Kbps
Channel(s)                               : 2 channels
Sampling rate                            : 44.1 KHz
Compression mode                         : Lossy
Stream size                              : 103 MiB (15%)
Alignment                                : Split accross interleaves
Interleave, duration                     : 42 ms (1.00 video frame)
Interleave, preload duration             : 500 ms
Writing library                          : LAME3.97 (beta)

 
image 
image 
image		
Gangster.Squad.2013 WEBRip XViD juggs/Gangster.Squad.2013 WEBRip XViD juggs.avi 737.252 MB
Gangster.Squad.2013 WEBRip XViD juggs/Torrent Downloaded From ExtraTorrent.com.txt 339 B
Gangster.Squad.2013 WEBRip XViD juggs/sample.avi 6.472 MB
Gathering some info...

Register and log in Isohunt and see no captcha anymore!

4000 symbols left
Hash 639ce2f64286d60e2d99f956006032362da9c67d

Related torrents for "Gangster.Squad.2013 WEBRip XViD juggs"

Torrent search:

web-rip 2013