imdb
rating

6.8
Gangster Squad

Gangster Squad (2013)

Action, Crime, Drama, Thriller

Full description
quality   bd dvdrip telesync dvdr x264 hd cam

Gangster Squad 2013 WEB-DL x264-SSDD

Size 577.3 MB   0 seeders     Added 2013-04-02 20:33:49

Stream torrent
Starting‥ You need BitLord! Get it from BitLord.com
To download or stream you need BitLord. Visit them at BitLord.com
Source - Gangster.Squad.2013.720p.WEB-DL.H264-IRONCLUB 3.28GB (Thumbs Up + Respect)

NOTES - If you're going to do it, do it right first time, quality before speed!

General
Complete name                            : Gangster Squad 2013 WEB-DL x264-SSDD.mp4
Format                                   : MPEG-4
Format profile                           : Base Media
Codec ID                                 : isom
File size                                : 550 MiB
Duration                                 : 1h 52mn
Overall bit rate mode                    : Variable
Overall bit rate                         : 682 Kbps

Video
ID                                       : 1
Format                                   : AVC
Format/Info                              : Advanced Video Codec
Format profile                           : High@L4.1
Format settings, CABAC                   : Yes
Format settings, ReFrames                : 4 frames
Codec ID                                 : avc1
Codec ID/Info                            : Advanced Video Coding
Duration                                 : 1h 52mn
Bit rate                                 : 630 Kbps
Maximum bit rate                         : 2 399 Kbps
Width                                    : 720 pixels
Height                                   : 304 pixels
Display aspect ratio                     : 2.35:1
Frame rate mode                          : Constant
Frame rate                               : 23.976 fps
Color space                              : YUV
Chroma subsampling                       : 4:2:0
Bit depth                                : 8 bits
Scan type                                : Progressive
Bits/(Pixel*Frame)                       : 0.120
Stream size                              : 509 MiB (92%)
Writing library                          : x264 core 130 r2273 b3065e6

Audio
ID                                       : 2
Format                                   : AAC
Format/Info                              : Advanced Audio Codec
Format profile                           : LC
Codec ID                                 : 40
Duration                                 : 1h 52mn
Bit rate mode                            : Variable
Bit rate                                 : 48.0 Kbps
Maximum bit rate                         : 59.3 Kbps
Channel(s)                               : 2 channels
Channel positions                        : Front: L R
Sampling rate                            : 48.0 KHz
Compression mode                         : Lossy
Stream size                              : 38.8 MiB (7%)

Screens: 
image 
image 
image 
image		
Gangster Squad 2013 WEB-DL x264-SSDD/www.RARBG.com.txt 45 B
Gangster Squad 2013 WEB-DL x264-SSDD/Gangster Squad 2013 WEB-DL x264-SSDD.mp4 577.3 MB
Gathering some info...

Register and log in Isohunt and see no captcha anymore!

4000 symbols left
Hash d03f96f781a742aac95ba06aa47d121ea87de738

Related torrents for "Gangster Squad 2013 WEB-DL x264-SSDD"

Torrent search:

x264 web-dl 2013