imdb
rating

5.9
The Canyon

The Canyon (2009)

Thriller

Full description
quality   dvdrip dvdr x264 hdtv hd

Zion.and.Bryce.Canyon.National.Parks.1of2.720p.HDTV.x264.AAC.MVGroup.Forum.mp4

Size 1.16 GB   1 seeders     Added 2013-04-02 22:33:49

Stream torrent
Starting‥ You need BitLord! Get it from 1BitLord.com
To download or stream you need BitLord. Visit them at BitLord.com
Zion and Bryce Canyon National Parks

Travel Documentary hosted by David Michael Gee, published by Questar in 2009 - English narration


Information
------------------------------

1)  Zion and Bryce Canyon National Parks 
By foot, shuttle, and horseback, this program gives you access to the scenic and geological wonders of Zion and Bryce Canyon National Parks. In Zion, embark on a breathtaking ascent of Angel s Landing. In Bryce Canyon, climb sheer cliff walls, tube down the Virgin River, and gaze upon thousands of beautiful and bizarre rock spires known as hoodoos.


2)  Secrets of the Southwest 
In this land made famous by Georgia O Keeffe, you will discover the secrets of the Southwest along famous Route 66 and the Grand Circle, an area that boasts the highest concentration of national parks in the country, including the grandest canyon of them all. Discover how Monument Valley in Utah and Gallup in New Mexico became cinematic locations, jet-ski in the brilliant blue waters of Lake Powell, and explore the spirit of the Navajo in Canyon de Chelly.

Screenshots
------------------------------ 
image 
image 
image 
image 
image 
image 
image 
image 
image 
image 
image 
image 
image 
image 
image 

Technical Specs
------------------------------


 * Format : MPEG-4
 * Format profile : Base Media
 * Codec ID : isom
 * File size : 1.08 GiB
 * Duration : 52mn 41s
 * Overall bit rate mode : Variable
 * Overall bit rate : 2 937 Kbps
 * Video
 * Format : AVC
 * Codec ID/Info : Advanced Video Coding
 
 * Duration : 52mn 41s
 * Bit rate mode : Variable
 * Bit rate : 2 615 Kbps
 * Maximum bit rate : 25.0 Mbps
 * Width : 1 280 pixels
 * Height : 720 pixels
 * Display aspect ratio : 16:9
 * Frame rate mode : Constant
 * Frame rate : 29.970 fps
 * Color space : YUV
 * Chroma subsampling : 4:2:0
 * Bit depth : 8 bits
 * Scan type : Progressive
 * Bits/(Pixel*Frame) : 0.095
 * Stream size : 985 MiB (89%)
 * Writing library : x264 core 129 r2245 bc13772
 * Audio
 * Format : AAC
 * Format/Info : Advanced Audio Codec
 * Format profile : LC
 * Codec ID : 40
 
 * Duration : 52mn 41s
 * Bit rate mode : Variable
 * Bit rate : 320 Kbps
 * Maximum bit rate : 328 Kbps
 * Channel(s) : 6 channels
 * Channel positions : Front: L C R, Side: L R, LFE
 * Sampling rate : 48.0 KHz
 * Compression mode : Lossy
 * Stream size : 121 MiB (11%)



Links
------------------------------

1)  Further Information 
http://www.questarhomevideo.com/shopexd.asp?id=1011

2)  Related Documentaries 
http://docuwiki.net/?title=National%20Park%20Collection 
http://docuwiki.net/?title=Americas%20National%20Treasures 
http://docuwiki.net/?title=The%20National%20Parks%3A%20America%27s%20Best%20Idea 
http://docuwiki.net/?title=Christmas%20in%20Yellowstone 
http://docuwiki.net/?title=Secret%20Yellowstone

3)  ed2k Links 


"ed2k://|file|Zion.and.Bryce.Canyon.National.Parks.1of2.720p.HDTV.x264.AAC.MVGroup.Forum.mp4|1160499582|c89fe6ee54cf0c9952d510b5f0be2b51|/"
"ed2k://|file|Zion.and.Bryce.Canyon.National.Parks.2of2.720p.HDTV.x264.AAC.MVGroup.Forum.mp4|940783980|d0586c92368529eac69a529a303a1e49|/"




Added by 
http://docuwiki.net/?title=User%3Ashink5

Source: 
http://docuwiki.net/index.php?title=Zion_and_Bryce_Canyon_National_Parks
		
Zion.and.Bryce.Canyon.National.Parks.1of2.720p.HDTV.x264.AAC.MVGroup.Forum.mp4 1.16 GB
Gathering some info...

Register and log in Isohunt and see no captcha anymore!

4000 symbols left
Hash 509d15d573625c707a7996fe5a5f68b298bbba02

Related torrents for "Zion.and.Bryce.Canyon.National.Parks.1of2.720p.HDTV.x264.AAC.MVGroup.Forum.mp4"

Torrent search:

x264 hdtv hd