imdb
rating

7.8
Silver Linings Playbook

Silver Linings Playbook (2012)

Comedy, Drama, Romance

Full description

Silver Linings Playbook 2012 BRRip 720p x264 AAC - PRiSTiNE [P2PDL]

Size 738.942 MB   0 seeders     Added 2013-04-02 23:31:38

Stream torrent
Starting‥ You need BitLord! Get it from BitLord.com
To download or stream you need BitLord. Visit them at BitLord.com
Pat (Bradley Cooper) is a school teacher that just got out of the mental hospital. He has bipolar disorder which usually causing trouble in controlling emotions. While he was in the hospital things got different outside. His wife Nikki, moved away and he can’t go near her cause of the court resolution about the incident that got him into asylum in the first place. His father Pat Sr. (Robert De Niro) started gambling to get money to open his own restaurant. Pat wants to restore his relationships with Nikki and get his job as a teacher back. When having a dinner with his friend Ronnie, he meets his sister-in-law Tiffany Maxwell(Jennifer Lawrence), who just lost her husband and got fired. Pat and Tiffany’s complexed psychological condition, forms weird friendship, based on sharing their disorders with each other. But Pat still wants to reunite with Nikki and asks Tiffany to help him with that. Silver Linings Playbook is critically acclaimed romantic-comedy drama film. Film has nine Oscar nominations and one Academy Award for the best actress(Jennifer Lawrence). Great actors, like Bradley Cooper and Robert De Niro, made Silver Linings Playbook a story worth to believe in. And sure worth to watch.

Genre: Comedy | Drama | Romance
Director: David O. Russell
Stars: Bradley Cooper, Jennifer Lawrence, Robert De Niro
Rated: Rated R for language and some sexual content/nudity

Info: 
http://www.imdb.com/title/tt1045658/

General
Complete name                  : Silver Linings Playbook 2012 BRRip 720p x264 AAC - PRiSTiNE.mp4
Format                         : MPEG-4
Format profile                 : Base Media
File size                      : 701 MiB
Duration                       : 2h 2mn
Overall bit rate mode          : Variable
Overall bit rate               : 803 Kbps

Source                         : 720p.BluRay.x264-iNFAMOUS (Thanks)

Video
ID                             : 1
Format                         : AVC
Format/Info                    : Advanced Video Codec
Format profile                 : High 10@L4.1
Bit rate                       : 716 Kbps
Width                          : 1 280 pixels
Height                         : 536 pixels
Display aspect ratio           : 2.40:1
Frame rate mode                : Constant
Frame rate                     : 23.976 fps
Bit depth                      : 10 bits
Stream size                    : 625 MiB (89%)
Writing library                : x264 core 130 r2273 b3065e6

Audio
Format                         : AAC
Bit rate mode                  : Variable
Bit rate                       : 84.0 Kbps
Channel(s)                     : 2 channels
Channel positions              : Front: L R
Sampling rate                  : 48.0 KHz / 24.0 KHz
Stream size                    : 73.3 MiB (10%)
Language                       : English

Subtitle                       : Yes (English)
	
Silver Linings Playbook 2012 BRRip 720p x264 AAC - PRiSTiNE [P2PDL]/Silver Linings Playbook 2012 BRRip 720p x264 AAC - PRiSTiNE/Silver Linings Playbook 2012 BRRip 720p x264 AAC - PRiSTiNE.mp4 734.897 MB
Silver Linings Playbook 2012 BRRip 720p x264 AAC - PRiSTiNE [P2PDL]/Sample.mp4 3.875 MB
Silver Linings Playbook 2012 BRRip 720p x264 AAC - PRiSTiNE [P2PDL]/Silver Linings Playbook 2012 BRRip 720p x264 AAC - PRiSTiNE/Silver Linings Playbook 2012 BRRip 720p x264 AAC - PRiSTiNE.srt 164.614 KB
Gathering some info...

Register and log in Isohunt and see no captcha anymore!

4000 symbols left
Hash 399dec9e57471ab22d1f5476b07fe85e52c749f5

Related torrents for "Silver Linings Playbook 2012 BRRip 720p x264 AAC - PRiSTiNE [P2PDL]"

Torrent search:

x264 hd 2012 bd