Saare Jahan Se Mahenga (2013) 1CD DTHRip - Xvid - MP3 - Team IcTv Xclusive.avi

Size 731.504 MB   5 seeders     Added 2013-04-02 23:31:39

Stream torrent
Starting‚Ä• You need BitLord! Get it from BitLord.com
To download or stream you need BitLord. Visit them at BitLord.com
 image 
image 
image 
image 
image 
image 
image

Media Info - 
Video
ID : 0
Format : MPEG-4 Visual
Format profile : Advanced Simple@L5
Format settings, BVOP : 2
Format settings, QPel : Yes
Format settings, GMC : No warppoints
Format settings, Matrix : Default (H.263)
Codec ID : XVID
Codec ID/Hint : XviD
Duration : 1h 46mn
Bit rate : 830 Kbps
Width : 640 pixels
Height : 272 pixels
Display aspect ratio : 2.35:1
Frame rate : 23.976 fps
Color space : YUV
Chroma subsampling : 4:2:0
Bit depth : 8 bits
Scan type : Progressive
Compression mode : Lossy
Bits/(Pixel*Frame) : 0.199
Stream size : 631 MiB (90%)
Writing library : XviD 1.2.1 (UTC 2008-12-04)

Audio
ID : 1
Format : MPEG Audio
Format version : Version 1
Format profile : Layer 3
Mode : Joint stereo
Mode extension : MS Stereo
Codec ID : 55
Codec ID/Hint : MP3
Duration : 1h 46mn
Bit rate mode : Variable
Bit rate : 80.0 Kbps
Channel(s) : 2 channels
Sampling rate : 32.0 KHz
Compression mode : Lossy
Stream size : 58.8 MiB (8%)
Alignment : Aligned on interleaves
Interleave, duration : 36 ms (0.86 video frame)
Interleave, preload duration : 208 ms
Title : VTS_01_1 T80 2_0ch 256Kbps DELAY 0ms_new
Writing library : LAME3.99r
Encoding settings : -m j -V 4 -q 2 -lowpass 13.5 --abr 80

Ripper : -=Hell=-

Seeding 24x7... Extreme Seeding...


Enjoy!
		
Saare Jahan Se Mahenga (2013) 1CD DTHRip - Xvid - MP3 - Team IcTv Xclusive.avi 731.504 MB
Gathering some info...

Register and log in Isohunt and see no captcha anymore!

4000 symbols left
Hash d1dabc7c184a8b6b8cfa17f06c2479b30975d893