imdb
rating

6.3
Dark Skies

Dark Skies (2013)

Horror, Science Fiction, Thriller

Full description

Dark Skies 2013 Webrip Xvid AC3 - TODE Verified

Size 687.558 MB   15 seeders     Added 2013-04-03 18:16:36

Stream torrent
Starting‥ You need BitLord! Get it from 1BitLord.com
To download or stream you need BitLord. Visit them at BitLord.com
	Plot: As the Barret family's peaceful suburban life is rocked by an escalating series of disturbing events, they come to learn that a terrifying and deadly force is after them.



Director:
Scott Stewart

Writer:
Scott Stewart

Stars:
Keri Russell, Jake Brennan, Josh Hamilton

Genres:
Horror |  Sci-Fi |  Thriller

Country:
USA

Language:
English


Thanks : TommieCook




Format                                   : AVI
Format/Info                              : Audio Video Interleave
File size                                : 647 MiB
Duration                                 : 1h 33mn
Overall bit rate                         : 972 Kbps
Writing application                      : Lavf54.59.103

Video
ID                                       : 0
Format                                   : MPEG-4 Visual
Format profile                           : Simple@L3
Format settings, BVOP                    : No
Format settings, QPel                    : No
Format settings, GMC                     : No warppoints
Format settings, Matrix                  : Default (H.263)
Codec ID                                 : XVID
Codec ID/Hint                            : XviD
Duration                                 : 1h 33mn
Bit rate                                 : 833 Kbps
Width                                    : 640 pixels
Height                                   : 272 pixels
Display aspect ratio                     : 2.35:1
Frame rate                               : 25.000 fps
Color space                              : YUV
Chroma subsampling                       : 4:2:0
Bit depth                                : 8 bits
Scan type                                : Progressive
Compression mode                         : Lossy
Bits/(Pixel*Frame)                       : 0.191
Stream size                              : 554 MiB (86%)
Writing library                          : XviD 64

Audio
ID                                       : 1
Format                                   : AC-3
Format/Info                              : Audio Coding 3
Mode extension                           : CM (complete main)
Format settings, Endianness              : Big
Codec ID                                 : 2000
Duration                                 : 1h 33mn
Bit rate mode                            : Constant
Bit rate                                 : 128 Kbps
Channel(s)                               : 2 channels
Channel positions                        : Front: L R
Sampling rate                            : 48.0 KHz
Bit depth                                : 16 bits
Compression mode                         : Lossy
Stream size                              : 85.2 MiB (13%)
Alignment                                : Aligned on interleaves
Interleave, duration                     : 32 ms (0.80 video frame)

Screens: 
image 
image 
image 
image 
image		
Dark Skies 2013 Webrip Xvid AC3 - TODE/www.RARBG.com.txt 45 B
Dark Skies 2013 Webrip Xvid AC3 - TODE/sample.avi 9.629 MB
Dark Skies 2013 Webrip Xvid AC3 - TODE/Dark Skies 2013 Webrip Xvid AC3 - TODE.avi 677.929 MB
Gathering some info...

Register and log in Isohunt and see no captcha anymore!

4000 symbols left
Hash b6522fa7449cfd41c62658c7bc50788b0e4194df

Related torrents for "Dark Skies 2013 Webrip Xvid AC3 - TODE"

Torrent search:

web-rip 2013