imdb
rating

6.1
My Awkward Sexual Adventure

My Awkward Sexual Adventure (2012)

Comedy, Romance

Full description
quality   bd dvdrip dvd x264 hd h264

My Awkward Sexual Adventure 2012 BRRip XViD juggs

Size 742.617 MB   0 seeders     Added 2013-04-04 02:16:38

Stream torrent
Starting‥ You need BitLord! Get it from BitLord.com
To download or stream you need BitLord. Visit them at BitLord.com
 http://www.imdb.com/title/tt2112210/

Format                                   : AVI
Format/Info                              : Audio Video Interleave
File size                                : 701 MiB
Duration                                 : 1h 43mn
Overall bit rate                         : 948 Kbps
Writing library                          : VirtualDub build 32842/release

Video
ID                                       : 0
Format                                   : MPEG-4 Visual
Format profile                           : Advanced Simple@L5
Format settings, BVOP                    : 2
Format settings, QPel                    : No
Format settings, GMC                     : No warppoints
Format settings, Matrix                  : Default (H.263)
Muxing mode                              : Packed bitstream
Codec ID                                 : XVID
Codec ID/Hint                            : XviD
Duration                                 : 1h 43mn
Bit rate                                 : 811 Kbps
Width                                    : 640 pixels
Height                                   : 352 pixels
Display aspect ratio                     : 16:9
Frame rate                               : 24.000 fps
Color space                              : YUV
Chroma subsampling                       : 4:2:0
Bit depth                                : 8 bits
Scan type                                : Progressive
Compression mode                         : Lossy
Bits/(Pixel*Frame)                       : 0.150
Stream size                              : 600 MiB (86%)
Writing library                          : XviD 1.2.0.dev47 (UTC 2006-11-01)

Audio
ID                                       : 1
Format                                   : MPEG Audio
Format version                           : Version 1
Format profile                           : Layer 3
Codec ID                                 : 55
Codec ID/Hint                            : MP3
Duration                                 : 1h 43mn
Bit rate mode                            : Constant
Bit rate                                 : 128 Kbps
Channel(s)                               : 2 channels
Sampling rate                            : 44.1 KHz
Compression mode                         : Lossy
Stream size                              : 94.7 MiB (14%)
Alignment                                : Split accross interleaves
Interleave, duration                     : 42 ms (1.00 video frame)
Interleave, preload duration             : 500 ms
Writing library                          : LAME3.99r
Encoding settings                        : -m s -V 4 -q 3 -lowpass 17 -b 128

 
image 
image 
image		
My Awkward Sexual Adventure 2012 BRRip XViD juggs/My Awkward Sexual Adventure 2012 BRRip XViD juggs.avi 735.219 MB
My Awkward Sexual Adventure 2012 BRRip XViD juggs/Torrent Downloaded From ExtraTorrent.com.txt 339 B
My Awkward Sexual Adventure 2012 BRRip XViD juggs/sample.avi 7.397 MB
Gathering some info...

Register and log in Isohunt and see no captcha anymore!

4000 symbols left
Hash 6b1d3da7cc3665af2977c302a9a998ff3e002080

Related torrents for "My Awkward Sexual Adventure 2012 BRRip XViD juggs"

Torrent search:

2012 bd