A Boy 2007 720p BRRip x264 MP4 AAC-CC

Size 2.959 GB   0 seeders     Added 2013-04-04 02:31:41

Stream torrent
Starting‥ You need BitLord! Get it from 1BitLord.com
To download or stream you need BitLord. Visit them at BitLord.com
 http://www.imdb.com/title/tt1078188/

Source: Boy A 2007 720p BluRay x264-HDCLUB Thanks!

Subs: Dutch, English, Finnish, French, Norwegian, Polish, Romanian, Spanish. Swedish.

Sample and Screens included.

General
Complete name                            : A Boy 2007 720p BRRip x264 MP4 AAC-CC.mp4
Format                                   : MPEG-4
Format profile                           : Base Media
Codec ID                                 : isom
File size                                : 2.75 GiB
Duration                                 : 1h 46mn
Overall bit rate mode                    : Variable
Overall bit rate                         : 3 696 Kbps
Encoded date                             : UTC 2013-03-21 14:09:41
Tagged date                              : UTC 2013-03-21 14:09:41
Writing application                      : Yamb 2.1.0.0 

Video
ID                                       : 1
Format                                   : AVC
Format/Info                              : Advanced Video Codec
Format profile                           : High@L4.1
Format settings, CABAC                   : Yes
Format settings, ReFrames                : 5 frames
Codec ID                                 : avc1
Codec ID/Info                            : Advanced Video Coding
Duration                                 : 1h 46mn
Bit rate                                 : 3 383 Kbps
Maximum bit rate                         : 25.8 Mbps
Width                                    : 1 280 pixels
Height                                   : 720 pixels
Display aspect ratio                     : 16:9
Frame rate mode                          : Variable
Frame rate                               : 23.976 fps
Minimum frame rate                       : 19.133 fps
Maximum frame rate                       : 24.390 fps
Color space                              : YUV
Chroma subsampling                       : 4:2:0
Bit depth                                : 8 bits
Scan type                                : Progressive
Bits/(Pixel*Frame)                       : 0.153
Stream size                              : 2.46 GiB (90%)
Writing library                          : x264 core 112
Encoding settings                        : cabac=1 / ref=5 / deblock=1:0:0 / analyse=0x3:0x113 / me=hex / subme=7 / psy=1 / psy_rd=1.00:0.00 / mixed_ref=1 / me_range=16 / chroma_me=1 / trellis=1 / 8x8dct=1 / cqm=0 / deadzone=21,11 / fast_pskip=1 / chroma_qp_offset=-2 / threads=3 / sliced_threads=0 / nr=0 / decimate=1 / interlaced=0 / constrained_intra=0 / bframes=5 / b_pyramid=2 / b_adapt=2 / b_bias=0 / direct=1 / weightb=1 / open_gop=0 / weightp=2 / keyint=240 / keyint_min=23 / scenecut=40 / intra_refresh=0 / rc_lookahead=50 / rc=abr / mbtree=1 / bitrate=3383 / ratetol=1.0 / qcomp=0.60 / qpmin=3 / qpmax=51 / qpstep=4 / ip_ratio=1.40 / aq=1:1.00
Encoded date                             : UTC 2013-03-21 21:28:43
Tagged date                              : UTC 2013-03-21 14:14:14
Color primaries                          : BT.709
Transfer characteristics                 : BT.709
Matrix coefficients                      : BT.709

Audio
ID                                       : 2
Format                                   : AAC
Format/Info                              : Advanced Audio Codec
Format profile                           : LC
Codec ID                                 : 40
Duration                                 : 1h 46mn
Bit rate mode                            : Variable
Bit rate                                 : 384 Kbps
Maximum bit rate                         : 685 Kbps
Channel(s)                               : 6 channels
Channel positions                        : Front: L C R, Side: L R, LFE
Sampling rate                            : 48.0 KHz
Compression mode                         : Lossy
Delay relative to video                  : 83ms
Stream size                              : 291 MiB (10%)
Language                                 : English
Encoded date                             : UTC 2013-03-21 14:13:07
Tagged date                              : UTC 2013-03-21 14:14:14

Enjoy...

Requested by cmptrluvr's

Coming soon: Touch of Evil, Tropa de Elite 2, Quiz Show, Candyman and more...		
A Boy 2007 720p BRRip x264 MP4 AAC-CC/Screens-Info/A Boy-2007 720p BRRip x264 MP4 AAC-CC.mp4_snapshot_00.11.10.png 1.908 MB
A Boy 2007 720p BRRip x264 MP4 AAC-CC/Screens-Info/A Boy-2007 720p BRRip x264 MP4 AAC-CC.mp4_snapshot_00.59.53.png 1.628 MB
A Boy 2007 720p BRRip x264 MP4 AAC-CC/Screens-Info/A Boy-2007 720p BRRip x264 MP4 AAC-CC.mp4_snapshot_00.46.17.png 1.579 MB
Gathering some info...

Register and log in Isohunt and see no captcha anymore!

4000 symbols left
Hash 115e0267285edba3b8902c0f8d765bacc4c3f04a