imdb
rating

6.3
Dark Skies

Dark Skies (2013)

Horror, Science Fiction, Thriller

Full description

[ www.Speed.Cd ] - Dark.Skies.2013.WEBRip.CamAudio.Xvid.Feel-Free

Size 945.124 MB   0 seeders     Added 2013-04-04 05:02:35

Stream torrent
Starting‥ You need BitLord! Get it from 1BitLord.com
To download or stream you need BitLord. Visit them at BitLord.com
-
 
http://www.Speed. Cd       the fast  and The Hottest Private Tracker on the net 
http://www.Speed. Cd

Please Seed back to make the speed Faster!!
 ............ NFO .............
-
 
http://www.Speed. Cd[img]image[/img]
[img]image[/img]


Genre:Horror | Sci-Fi | Thriller
Language:English
IMDb:http://www.imdb.com/title/tt2387433/
Source:TommieCook Thanks
Sample:Never
Encoder:Tony

Format                                   : AVI
Format/Info                              : Audio Video Interleave
File size                                : 900 MiB
Duration                                 : 1h 33mn
Overall bit rate                         : 1 353 Kbps

Video
ID                                       : 0
Format                                   : MPEG-4 Visual
Format profile                           : Advanced Simple@L5
Format settings, BVOP                    : 1
Format settings, QPel                    : No
Format settings, GMC                     : No warppoints
Format settings, Matrix                  : Default (H.263)
Codec ID                                 : XVID
Codec ID/Hint                            : XviD
Duration                                 : 1h 33mn
Bit rate                                 : 1 184 Kbps
Width                                    : 640 pixels
Height                                   : 272 pixels
Display aspect ratio                     : 2.35:1
Frame rate                               : 25.000 fps
Color space                              : YUV
Chroma subsampling                       : 4:2:0
Bit depth                                : 8 bits
Scan type                                : Progressive
Compression mode                         : Lossy
Bits/(Pixel*Frame)                       : 0.272
Stream size                              : 788 MiB (87%)
Writing library                          : XviD 1.2.1 (UTC 2008-12-04)

Audio
ID                                       : 1
Format                                   : AC-3
Format/Info                              : Audio Coding 3
Mode extension                           : CM (complete main)
Codec ID                                 : 2000
Duration                                 : 1h 33mn
Bit rate mode                            : Constant
Bit rate                                 : 160 Kbps
Channel(s)                               : 2 channels
Channel positions                        : Front: L R
Sampling rate                            : 48.0 KHz
Bit depth                                : 16 bits
Compression mode                         : Lossy
Stream size                              : 106 MiB (12%)
Alignment                                : Aligned on interleaves
Interleave, duration                     : 40 ms (1.00 video frame)
Interleave, preload duration             : 512 ms

    
Plot:
   As the Barret family's peaceful suburban life is rocked by an escalating
series of disturbing events, they come to learn that a terrifying and deadly
force is after them.


Greets:
 CRYS,INSPiRAL,IMAGINE,LKRG,ADTRG,FXG,3Li,FLAWL3SS,CrEwSaDe,TA,iLLUSiON,EMBER,HOPE,GooN,BBnRG,NOGRP,ETRG,BHRG,iLLUMiNATi,MiSTERE.ViSiON,DTRG SAFCuk009,LU,TheFalcon007,MYSTiC,PrisM,Noir,WBZ,LAP,Rx,Kingdom,SAFCuk009+Fabreezy,HDLiTE,TWiZTED,ETRG.ELEKTRI4KA,MAGNAT,CM8
                And to all the other p2p grps past and present		
[ www.Speed.Cd ] - Dark.Skies.2013.WEBRip.CamAudio.Xvid.Feel-Free/22241862152307540604.jpg 105.961 KB
[ www.Speed.Cd ] - Dark.Skies.2013.WEBRip.CamAudio.Xvid.Feel-Free/Dark.Skies.2013.WEBRip.CamAudio.Xvid.Feel-Free.avi 944.194 MB
[ www.Speed.Cd ] - Dark.Skies.2013.WEBRip.CamAudio.Xvid.Feel-Free/Dark.Skies.2013.WEBRip.CamAudio.Xvid.Feel-Free.nfo 3.302 KB
Gathering some info...

Register and log in Isohunt and see no captcha anymore!

4000 symbols left
Hash 89db113b41e62532516f68e7a1fb70a62aa3474f

Related torrents for "[ www.Speed.Cd ] - Dark.Skies.2013.WEBRip.CamAudio.Xvid.Feel-Free"

Torrent search:

web-rip 2013