imdb
rating

3.4
Hirokin: The Last Samurai

Hirokin: The Last Samurai (2012)

Action, Adventure, Drama, Science Fiction

Full description
quality   hd bd hdtv dvdrip x264

Hirokin.2012.DVDRip.SweSub.Xvid Verified

Size 733.969 MB   0 seeders     Added 2013-04-04 16:46:35

Stream torrent
Starting‥ You need BitLord! Get it from BitLord.com
To download or stream you need BitLord. Visit them at BitLord.com
                      Swedish Hardsub

              http://www.imdb.com/title/tt1693679/



General
Complete name                       : Hirokin.2012.DVDRip.SweSub.Xvid.avi
Format                              : AVI
Format/Info                         : Audio Video Interleave
File size                           : 700 MiB
Duration                            : 1h 41mn


Video
ID                                  : 0
Format                              : MPEG-4 Visual
Format profile                      : Advanced Simple@L5
Format settings, BVOP               : 2
Format settings, QPel               : No
Format settings, GMC                : No warppoints
Format settings, Matrix             : Default (H.263)
Codec ID                            : XVID
Codec ID/Hint                       : XviD
Duration                            : 1h 41mn
Bit rate                            : 828 Kbps
Width                               : 720 pixels
Height                              : 304 pixels
Display aspect ratio                : 2.35:1
Frame rate                          : 25.000 fps
Color space                         : YUV
Chroma subsampling                  : 4:2:0
Bit depth                           : 8 bits
Scan type                           : Progressive
Compression mode                    : Lossy
Bits/(Pixel*Frame)                  : 0.151
Stream size                         : 600 MiB (86%)
Writing library                     : XviD 73

Audio
ID                                  : 1
Format                              : MPEG Audio
Format version                      : Version 1
Format profile                      : Layer 3
Mode                                : Joint stereo
Codec ID                            : 55
Codec ID/Hint                       : MP3
Duration                            : 1h 41mn
Bit rate mode                       : Variable
Bit rate                            : 128 Kbps
Channel(s)                          : 2 channels
Sampling rate                       : 48.0 KHz
Compression mode                    : Lossy
Stream size                         : 90.9 MiB (13%)
Alignment                           : Aligned on interleaves
Interleave, duration                : 24 ms (0.60 video frame)
Interleave, preload duration        : 378 ms
Writing library                     : LAME3.90.
Encoding settings                   : -m j -V 4 -q 2 -lowpass 17.6 --abr 128		
Hirokin.2012.DVDRip.SweSub.Xvid/Hirokin.2012.DVDRip.SweSub.Xvid.avi 733.966 MB
Hirokin.2012.DVDRip.SweSub.Xvid/Hirokin.2012.DVDRip.SweSub.Xvid.avi - MediaInfo.log 2.468 KB
Gathering some info...

Register and log in Isohunt and see no captcha anymore!

4000 symbols left
Hash ab392f7464420cee2fabe975cd7a6767f6fa0687

Related torrents for "Hirokin.2012.DVDRip.SweSub.Xvid"

Torrent search:

dvdrip 2012