Meri Shaadi Karao (2013) DVD RIP 1CD H.264-AAC-ENG SUBS MP4 TEAM IcTv .mp4 Verified

Size 704.824 MB   0 seeders     Added 2013-04-04 17:16:33

Stream torrent
Starting‚Ä• You need BitLord! Get it from BitLord.com
To download or stream you need BitLord. Visit them at BitLord.com
 image 
image 
image 
image 
image

Info - 
Cast
Gurdeep Mehndi.... Gurdeep Radhika Vaid.... Radhika Manoj Pahwa.... Kalyan
Nikki Mehndi.... Preetam

Music Director
Daler Mehndi Gurdeep Mehndi

Banner
Mehndi Production
Paragon Entertainment Group

Language... Hindi

Media Info - 
Video
ID : 1
Format : AVC
Format/Info : Advanced Video Codec
Format profile : Main@L2.1
Format settings, CABAC : Yes
Format settings, ReFrames : 4 frames
Codec ID : avc1
Codec ID/Info : Advanced Video Coding
Duration : 1h 50mn
Bit rate mode : Variable
Bit rate : 686 Kbps
Width : 640 pixels
Height : 284 pixels
Display aspect ratio : 2.25:1
Frame rate mode : Variable
Frame rate : 23.976 fps
Minimum frame rate : 7.992 fps
Maximum frame rate : 23.981 fps
Color space : YUV
Chroma subsampling : 4:2:0
Bit depth : 8 bits
Scan type : Progressive
Bits/(Pixel*Frame) : 0.157
Stream size : 542 MiB (81%)
Writing library : x264 core 120
Color primaries : BT.601 NTSC
Transfer characteristics : BT.709
Matrix coefficients : BT.601

Audio
ID : 2
Format : AAC
Format/Info : Advanced Audio Codec
Format profile : LC
Codec ID : 40
Duration : 1h 50mn
Bit rate mode : Variable
Bit rate : 160 Kbps
Maximum bit rate : 297 Kbps
Channel(s) : 2 channels
Channel positions : Front: L R
Sampling rate : 44.1 KHz
Compression mode : Lossy
Delay relative to video : 167ms
Stream size : 126 MiB (19%)

Ripper : Mercury

Seeding 24x7... Extreme Seeding...


Enjoy!
		
Meri Shaadi Karao (2013) DVD RIP 1CD H.264-AAC-ENG SUBS MP4 TEAM IcTv .mp4 704.824 MB
Gathering some info...

Register and log in Isohunt and see no captcha anymore!

4000 symbols left
Hash 0d1b3e6e7b730c2ea0683e6cea11c1f53769f03d