imdb
rating

7.7
Grey's Anatomy

Grey's Anatomy (2005)

Drama

Full description

Grey's Anatomy 9x01 vostfr.mp4 Verified

Size 258.349 MB   0 seeders     Added 2013-04-05 12:47:35

Stream torrent
Starting‥ You need BitLord! Get it from BitLord.com
10
To download or stream you need BitLord. Visit them at BitLord.com
Grey's Anatomy 9x01 vostfr.mp4
Format                                   : MPEG-4
Format profile                           : Base Media
Codec ID                                 : isom
File size                                : 246 MiB
Duration                                 : 42mn 35s
Overall bit rate mode                    : Variable
Overall bit rate                         : 809 Kbps
Encoded date                             : UTC 2012-10-03 20:56:27
Tagged date                              : UTC 2012-10-03 20:56:27

Video
ID                                       : 1
Format                                   : AVC
Format/Info                              : Advanced Video Codec
Format profile                           : High@L3.1
Format settings, CABAC                   : Yes
Format settings, ReFrames                : 4 frames
Codec ID                                 : avc1
Codec ID/Info                            : Advanced Video Coding
Duration                                 : 42mn 35s
Bit rate                                 : 682 Kbps
Maximum bit rate                         : 1 886 Kbps
Width                                    : 720 pixels
Height                                   : 400 pixels
Display aspect ratio                     : 16:9
Frame rate mode                          : Constant
Frame rate                               : 23.976 fps
Color space                              : YUV
Chroma subsampling                       : 4:2:0
Bit depth                                : 8 bits
Scan type                                : Progressive
Bits/(Pixel*Frame)                       : 0.099
Stream size                              : 208 MiB (84%)
Writing library                          : x264 core 118 r2085 8a62835
Encoding settings                        : cabac=1 / ref=1 / deblock=1:0:0 / analyse=0x3:0x113 / me=hex / subme=7 / psy=1 / psy_rd=1.00:0.00 / mixed_ref=0 / me_range=16 / chroma_me=1 / trellis=1 / 8x8dct=1 / cqm=0 / deadzone=21,11 / fast_pskip=1 / chroma_qp_offset=-2 / threads=12 / sliced_threads=0 / nr=0 / decimate=1 / interlaced=0 / bluray_compat=0 / constrained_intra=0 / bframes=3 / b_pyramid=2 / b_adapt=1 / b_bias=0 / direct=1 / weightb=1 / open_gop=0 / weightp=2 / keyint=250 / keyint_min=23 / scenecut=40 / intra_refresh=0 / rc_lookahead=40 / rc=2pass / mbtree=1 / bitrate=682 / ratetol=1.0 / qcomp=0.60 / qpmin=0 / qpmax=69 / qpstep=4 / cplxblur=20.0 / qblur=0.5 / vbv_maxrate=3000 / vbv_bufsize=1000 / nal_hrd=none / ip_ratio=1.40 / aq=1:1.00
Encoded date                             : UTC 2012-10-03 20:56:27
Tagged date                              : UTC 2012-10-03 20:56:33

Audio
ID                                       : 2
Format                                   : AAC
Format/Info                              : Advanced Audio Codec
Format profile                           : LC
Codec ID                                 : 40
Duration                                 : 42mn 35s
Bit rate mode                            : Variable
Bit rate                                 : 123 Kbps
Maximum bit rate                         : 150 Kbps
Channel(s)                               : 2 channels
Channel positions                        : Front: L R
Sampling rate                            : 48.0 KHz
Compression mode                         : Lossy
Stream size                              : 37.4 MiB (15%)
Encoded date                             : UTC 2012-10-03 20:56:31
Tagged date                              : UTC 2012-10-03 20:56:33

		
Grey's Anatomy 9x01 vostfr.mp4 258.349 MB
Gathering some info...

Register and log in Isohunt and see no captcha anymore!

4000 symbols left
Hash 2d72ed272fd3039a8393025a5e6a58c0b4c5c18e

Related torrents for "Grey's Anatomy 9x01 vostfr.mp4"

Torrent search:

episode 01 season 09