imdb
rating

5.9
The Host

The Host (2013)

Action, Adventure, Science Fiction, Thriller, Romance

Full description

The Host 2013 Cam XviD Feel-Free Verified

Size 913.54 MB   0 seeders     Added 2013-04-05 16:46:41

Stream torrent
Starting‥ You need BitLord! Get it from BitLord.com
To download or stream you need BitLord. Visit them at BitLord.com
Genre:Action | Adventure | Romance
Language:English
IMDb:http://www.imdb.com/title/tt1517260/
Source:FANTA Thanks
Sample:Never
Encoder:Tony

Format                                   : AVI
Format/Info                              : Audio Video Interleave
File size                                : 870 MiB
Duration                                 : 1h 51mn
Overall bit rate                         : 1 088 Kbps

Video
ID                                       : 0
Format                                   : MPEG-4 Visual
Format profile                           : Advanced Simple@L5
Format settings, BVOP                    : 2
Format settings, QPel                    : No
Format settings, GMC                     : No warppoints
Format settings, Matrix                  : Default (H.263)
Muxing mode                              : Packed bitstream
Codec ID                                 : XVID
Codec ID/Hint                            : XviD
Duration                                 : 1h 51mn
Bit rate                                 : 950 Kbps
Width                                    : 640 pixels
Height                                   : 272 pixels
Display aspect ratio                     : 2.35:1
Frame rate                               : 25.000 fps
Color space                              : YUV
Chroma subsampling                       : 4:2:0
Bit depth                                : 8 bits
Scan type                                : Progressive
Compression mode                         : Lossy
Bits/(Pixel*Frame)                       : 0.218
Stream size                              : 760 MiB (87%)
Writing library                          : XviD 64

Audio
ID                                       : 1
Format                                   : MPEG Audio
Format version                           : Version 1
Format profile                           : Layer 3
Mode                                     : Joint stereo
Mode extension                           : MS Stereo
Codec ID                                 : 55
Codec ID/Hint                            : MP3
Duration                                 : 1h 51mn
Bit rate mode                            : Constant
Bit rate                                 : 128 Kbps
Channel(s)                               : 2 channels
Sampling rate                            : 48.0 KHz
Compression mode                         : Lossy
Stream size                              : 102 MiB (12%)
Alignment                                : Split accross interleaves
Interleave, duration                     : 40 ms (1.00 video frame)
Interleave, preload duration             : 500 ms
Writing library                          : LAME3.98.2

 
Plot:
When an unseen enemy threatens mankind by taking over their bodies and erasing their memories, Melanie will risk everything to protect the people she cares most about, proving that love can conquer all in a dangerous new world.

Screens: 
image 
image 
image		
The Host 2013 Cam XviD Feel-Free/vlcsnap-2013-04-05-06h13m50s235.png 300.264 KB
The Host 2013 Cam XviD Feel-Free/vlcsnap-2013-04-05-06h15m20s58.png 167.494 KB
The Host 2013 Cam XviD Feel-Free/www.RARBG.com.txt 45 B
Gathering some info...

Register and log in Isohunt and see no captcha anymore!

4000 symbols left
Hash 3927bbe7e7d3f548f85e5c8619eb88709950e294

Related torrents for "The Host 2013 Cam XviD Feel-Free"

Torrent search:

cam 2013