LUV 2012 DVDRip XviD juggs

Size 743.574 MB   28 seeders     Added 2013-04-05 21:01:39

Stream torrent
Starting‥ You need BitLord! Get it from BitLord.com
To download or stream you need BitLord. Visit them at BitLord.com
Source : DVDR IGUANA(Thanks)

Format : AVI
Format/Info : Audio Video Interleave
File size : 701 MiB
Duration : 1h 34mn
Overall bit rate : 1 037 Kbps
Writing library : VirtualDub build 32842/release

Video
ID : 0
Format : MPEG-4 Visual
Format profile : Advanced Simple@L5
Format settings, BVOP : 2
Format settings, QPel : No
Format settings, GMC : No warppoints
Format settings, Matrix : Default (H.263)
Muxing mode : Packed bitstream
Codec ID : XVID
Codec ID/Hint : XviD
Duration : 1h 34mn
Bit rate : 899 Kbps
Width : 640 pixels
Height : 256 pixels
Display aspect ratio : 2.500
Frame rate : 23.976 fps
Color space : YUV
Chroma subsampling : 4:2:0
Bit depth : 8 bits
Scan type : Progressive
Compression mode : Lossy
Bits/(Pixel*Frame) : 0.229
Stream size : 608 MiB (87%)
Writing library : XviD 1.2.0.dev47 (UTC 2006-11-01)

Audio
ID : 1
Format : MPEG Audio
Format version : Version 1
Format profile : Layer 3
Codec ID : 55
Codec ID/Hint : MP3
Duration : 1h 34mn
Bit rate mode : Constant
Bit rate : 128 Kbps
Channel(s) : 2 channels
Sampling rate : 44.1 KHz
Compression mode : Lossy
Stream size : 86.5 MiB (12%)
Alignment : Split accross interleaves
Interleave, duration : 42 ms (1.00 video frame)
Interleave, preload duration : 500 ms
Writing library : LAME3.99r
Encoding settings : -m s -V 4 -q 3 -lowpass 17 -b 128

Plot
An 11-year-old boy gets a crash course in what it means to be a man when he spends a day with the ex-convict uncle he idolizes.

 
image 
image 
image		
LUV 2012 DVDRip XviD juggs/LUV 2012 DVDRip XviD juggs.avi 734.9 MB
LUV 2012 DVDRip XviD juggs/Torrent Downloaded From ExtraTorrent.com.txt 339 B
LUV 2012 DVDRip XviD juggs/sample.avi 8.673 MB
Gathering some info...

Register and log in Isohunt and see no captcha anymore!

4000 symbols left
Hash 84b1050b260f4d78a59e22d4573bffa9e875170b