imdb
rating

6.8
Gangster Squad

Gangster Squad (2013)

Action, Crime, Drama, Thriller

Full description
quality   bd dvdrip telesync dvdr x264 hd cam

[ www.Speed.Cd ] - Gangster.Squad.2013.BRRip.AC3.XviD-VDON

Size 2.264 GB   0 seeders     Added 2013-04-06 01:33:26

Stream torrent
Starting‥ You need BitLord! Get it from BitLord.com
To download or stream you need BitLord. Visit them at BitLord.com
-
 
http://www.Speed. Cd       the fast  and The Hottest Private Tracker on the net 
http://www.Speed. Cd

Please Seed back to make the speed Faster!!
 ............ NFO .............
-
 
http://www.Speed. CdGangster Squad 2013.BRRip.AC3.VDON.avi
Format                           : AVI
Format/Info                      : Audio Video Interleave
Format profile                   : OpenDML
File size                        : 2.11 GiB
Duration                         : 1h 52mn
Overall bit rate                 : 2 674 Kbps
Writing application              : VirtualDubMod 1.5.10.3 | www.virtualdub-fr.org || (build 2550/release)
Writing library                  : VirtualDubMod build 2550/release

Video
ID                               : 0
Format                           : MPEG-4 Visual
Format profile                   : Advanced Simple@L5
Format settings, BVOP            : 4
Format settings, QPel            : No
Format settings, GMC             : No warppoints
Format settings, Matrix          : Default (H.263)
Muxing mode                      : Packed bitstream
Codec ID                         : XVID
Codec ID/Hint                    : XviD
Duration                         : 1h 52mn
Bit rate                         : 2 021 Kbps
Width                            : 720 pixels
Height                           : 304 pixels
Display aspect ratio             : 2.35:1
Frame rate                       : 23.976 fps
Color space                      : YUV
Chroma subsampling               : 4:2:0
Bit depth                        : 8 bits
Scan type                        : Progressive
Compression mode                 : Lossy
Bits/(Pixel*Frame)               : 0.385
Stream size                      : 1.59 GiB (76%)
Writing library                  : XviD 1.2.1 (UTC 2008-12-04)

Audio
ID                               : 1
Format                           : AC-3
Format/Info                      : Audio Coding 3
Mode extension                   : CM (complete main)
Codec ID                         : 2000
Duration                         : 1h 52mn
Bit rate mode                    : Constant
Bit rate                         : 640 Kbps
Channel(s)                       : 6 channels
Channel positions                : Front: L C R, Side: L R, LFE
Sampling rate                    : 48.0 KHz
Bit depth                        : 16 bits
Compression mode                 : Lossy
Stream size                      : 517 MiB (24%)
Alignment                        : Split accross interleaves
Interleave, duration             : 42 ms (1.00 video frame)
Interleave, preload duration     : 500 ms 
http://www.imdb.com/title/tt1321870/

SOURCE-Gangster Squad 2013 1080p BluRay x264-SPARKS		
[ www.Speed.Cd ] - Gangster.Squad.2013.BRRip.AC3.XviD-VDON/Gangster.Squad.2013.BRRip.AC3.XviD-VDON.avi 2.264 GB
[ www.Speed.Cd ] - Gangster.Squad.2013.BRRip.AC3.XviD-VDON/Gangster.Squad.2013.BRRip.AC3.XviD-VDON.nfo 2.472 KB
[ www.Speed.Cd ] - Gangster.Squad.2013.BRRip.AC3.XviD-VDON/www.scenetime.com.txt 55 B
Gathering some info...

Register and log in Isohunt and see no captcha anymore!

4000 symbols left
Hash 966f53e6d5b5c2ab3e80937a6c5534932ac96836

Related torrents for "[ www.Speed.Cd ] - Gangster.Squad.2013.BRRip.AC3.XviD-VDON"

Torrent search:

bd 2013