imdb
rating

6.5
Stand Up Guys

Stand Up Guys (2012)

Comedy, Crime, Drama

Full description

[ www.Speed.Cd ] - Stand.Up.Guys.2012.BRRip.XviD.Ac3.Feel-Free

Size 1.15 GB   1 seeders     Added 2013-04-06 18:32:49

Stream torrent
Starting‥ You need BitLord! Get it from BitLord.com
To download or stream you need BitLord. Visit them at BitLord.com
-
 
http://www.Speed. Cd       the fast  and The Hottest Private Tracker on the net 
http://www.Speed. Cd

Please Seed back to make the speed Faster!!
 ............ NFO .............
-
 
http://www.Speed. Cd[img]image[/img]
[img]image[/img]


Genre:Comedy | Crime
Language:English
IMDb:http://www.imdb.com/title/tt1389096/
Source:1080p.BluRay.x264-MARKED Thanks
Encoder:Tony

Format                                   : AVI
Format/Info                              : Audio Video Interleave
File size                                : 1.07 GiB
Duration                                 : 1h 34mn
Overall bit rate                         : 1 613 Kbps

Video
ID                                       : 0
Format                                   : MPEG-4 Visual
Format profile                           : Advanced Simple@L5
Format settings, BVOP                    : 1
Format settings, QPel                    : No
Format settings, GMC                     : No warppoints
Format settings, Matrix                  : Default (H.263)
Codec ID                                 : XVID
Codec ID/Hint                            : XviD
Duration                                 : 1h 34mn
Bit rate                                 : 1 220 Kbps
Width                                    : 624 pixels
Height                                   : 264 pixels
Display aspect ratio                     : 2.35:1
Frame rate                               : 23.976 fps
Color space                              : YUV
Chroma subsampling                       : 4:2:0
Bit depth                                : 8 bits
Scan type                                : Progressive
Compression mode                         : Lossy
Bits/(Pixel*Frame)                       : 0.309
Stream size                              : 829 MiB (76%)
Writing library                          : XviD 1.2.1 (UTC 2008-12-04)

Audio
ID                                       : 1
Format                                   : AC-3
Format/Info                              : Audio Coding 3
Mode extension                           : CM (complete main)
Codec ID                                 : 2000
Duration                                 : 1h 34mn
Bit rate mode                            : Constant
Bit rate                                 : 384 Kbps
Channel(s)                               : 6 channels
Channel positions                        : Front: L C R, Side: L R, LFE
Sampling rate                            : 48.0 KHz
Bit depth                                : 16 bits
Compression mode                         : Lossy
Stream size                              : 261 MiB (24%)
Alignment                                : Aligned on interleaves
Interleave, duration                     : 42 ms (1.00 video frame)
Interleave, preload duration             : 512 ms

   
Plot:
   A pair of aging con men try to get the old gang back together for one last hurrah before one of the guys takes his last assignment -- to kill his comrade.

TRAILER:


Greets:
 CRYS,INSPiRAL,IMAGINE,LKRG,ADTRG,FXG,3Li,FLAWL3SS,CrEwSaDe,TA,iLLUSiON,EMBER,HOPE,GooN,BBnRG,NOGRP,ETRG,BHRG,iLLUMiNATi,MiSTERE.ViSiON,DTRG SAFCuk009,LU,TheFalcon007,MYSTiC,PrisM,Noir,WBZ,LAP,Rx,Kingdom,SAFCuk009+Fabreezy,HDLiTE,TWiZTED,ETRG.ELEKTRI4KA,MAGNAT,CM8
                And to all the other p2p grps past and present		
[ www.Speed.Cd ] - Stand.Up.Guys.2012.BRRip.XviD.Ac3.Feel-Free/aa419d179f.jpg 53.332 KB
[ www.Speed.Cd ] - Stand.Up.Guys.2012.BRRip.XviD.Ac3.Feel-Free/Stand.Up.Guys.2012.BRRip.XviD.Ac3.Feel-Free.avi 1.149 GB
[ www.Speed.Cd ] - Stand.Up.Guys.2012.BRRip.XviD.Ac3.Feel-Free/Stand.Up.Guys.2012.BRRip.XviD.Ac3.Feel-Free.nfo 3.358 KB
Gathering some info...

Register and log in Isohunt and see no captcha anymore!

4000 symbols left
Hash a4cf0881cce0c76f2c27407dfff7b2ce878cbffc

Related torrents for "[ www.Speed.Cd ] - Stand.Up.Guys.2012.BRRip.XviD.Ac3.Feel-Free"

Torrent search:

2012 bd