IMPACT.WRESTLING.2013.03.21.HDTV.XviD-FICEK9

Size 782.806 MB   0 seeders     Added 2013-04-06 18:34:36

Stream torrent
Starting‚Ä• You need BitLord! Get it from BitLord.com
To download or stream you need BitLord. Visit them at BitLord.com
      Complete name : IMPACT.WRESTLING.2013.03.21.HDTV.XviD-FICEK9.avi
      Format : AVI
      Format/Info : Audio Video Interleave
      File size : 747 MiB
      Duration : 1h 23mn
      Overall bit rate mode : Variable
      Overall bit rate : 1 249 Kbps
      Writing application : MEncoder SVN-r33883(20110719-gcc4.5.2)
      Writing library : MPlayer
   Video #0
      ID : 0
      Format : MPEG-4 Visual
      Format profile : Advanced Simple@L5
      Format settings, BVOP : 2
      Format settings, QPel : No
      Format settings, GMC : No warppoints
      Format settings, Matrix : Default (H.263)
      Codec ID : XVID
      Codec ID/Hint : XviD
      Duration : 1h 23mn
      Bit rate : 1 111 Kbps
      Width : 624 pixels
      Height : 352 pixels
      Display aspect ratio : 16:9
      Original display aspect ratio : 16:9
      Frame rate : 29.970 fps
      Color space : YUV
      Chroma subsampling : 4:2:0
      Bit depth : 8 bits
      Scan type : Progressive
      Compression mode : Lossy
      Bits/(Pixel*Frame) : 0.169
      Stream size : 664 MiB (89%)
      Writing library : XviD 1.2.1 (UTC 2008-12-04)
   Audio #1
      ID : 1
      Format : MPEG Audio
      Format version : Version 1
      Format profile : Layer 3
      Mode : Joint stereo
      Codec ID : 55
      Codec ID/Hint : MP3
      Duration : 1h 23mn
      Bit rate mode : Variable
      Bit rate : 124 Kbps
      Channel(s) : 2 channels
      Sampling rate : 48.0 KHz
      Compression mode : Lossy
      Stream size : 74.1 MiB (10%)
      Alignment : Aligned on interleaves
      Interleave, duration : 24 ms (0.72 video frame)
      Interleave, preload duration : 591 ms
		
IMPACT.WRESTLING.2013.03.21.HDTV.XviD-FICEK9/IMPACT.WRESTLING.2013.03.21.HDTV.XviD-FICEK9.avi 782.805 MB
IMPACT.WRESTLING.2013.03.21.HDTV.XviD-FICEK9/IMPACT.WRESTLING.2013.03.21.HDTV.XviD-FICEK9.nfo 1.721 KB
Gathering some info...

Register and log in Isohunt and see no captcha anymore!

4000 symbols left
Hash 14922e1d61f42ee537ca224832361ab69e4306b3