imdb
rating

6.2
David

David (2013)

Crime, Drama, Romance

Full description
quality   dvdrip hdtv hd x264 fullhd

David (2013) DVDRip - Xvid Mp3 - [1CD] - ESubs - Team IcTv Exclusive.avi

Size 731.198 MB   0 seeders     Added 2013-04-07 02:01:41

Stream torrent
Starting‥ You need BitLord! Get it from BitLord.com
To download or stream you need BitLord. Visit them at BitLord.com
 image 
image 
image 
image 
image 
image

Media Info - 
Video
ID : 0
Format : MPEG-4 Visual
Format profile : Advanced Simple@L5
Format settings, BVOP : 2
Format settings, QPel : Yes
Format settings, GMC : No warppoints
Format settings, Matrix : Default (H.263)
Codec ID : XVID
Codec ID/Hint : XviD
Duration : 2h 39mn
Bit rate : 525 Kbps
Width : 640 pixels
Height : 272 pixels
Display aspect ratio : 2.35:1
Frame rate : 23.976 fps
Color space : YUV
Chroma subsampling : 4:2:0
Bit depth : 8 bits
Scan type : Progressive
Compression mode : Lossy
Bits/(Pixel*Frame) : 0.126
Stream size : 599 MiB (86%)
Writing library : XviD 1.2.1 (UTC 2008-12-04)

Audio
ID : 1
Format : MPEG Audio
Format version : Version 1
Format profile : Layer 3
Mode : Joint stereo
Mode extension : MS Stereo
Codec ID : 55
Codec ID/Hint : MP3
Duration : 2h 39mn
Bit rate mode : Constant
Bit rate : 80.0 Kbps
Channel(s) : 2 channels
Sampling rate : 32.0 KHz
Compression mode : Lossy
Stream size : 91.4 MiB (13%)
Alignment : Aligned on interleaves
Interleave, duration : 167 ms (4.00 video frames)
Interleave, preload duration : 216 ms
Title : VTS_02_1 T81 2_0ch 224Kbps DELAY 0ms
Writing library : LAME3.99r
Encoding settings : -m j -V 4 -q 2 -lowpass 13.5 -b 80

Ripper : Master Mind

Seeding 24x7... Extreme Seeding...


Enjoy!
		
David (2013) DVDRip - Xvid Mp3 - [1CD] - ESubs - Team IcTv Exclusive.avi 731.198 MB
Gathering some info...

Register and log in Isohunt and see no captcha anymore!

4000 symbols left
Hash 921af44f86a5cfb3fafe7fc6116237b0c00a1921

Related torrents for "David (2013) DVDRip - Xvid Mp3 - [1CD] - ESubs - Team IcTv Exclusive.avi"

Torrent search:

dvdrip 2013