Sniper 2 (2002) MultiSub DVDRip XviD AC3 FASTERWOLF

Size 1.476 GB   0 seeders     Added 2013-04-07 05:46:35

Stream torrent
Starting‥ You need BitLord! Get it from BitLord.com
To download or stream you need BitLord. Visit them at BitLord.com
Sniper 2 (2002) MultiSub DVDRip XviD AC3 FASTERWOLFSniper 2 (2002) MultiSub DVDRip XviD AC3.mkv
Format : Matroska
Format version : Version 4 / Version 2
File size : 1,37 GiB
Duration : 1h 26mn
Overall bit rate : 2 263 Kbps
Encoded date : UTC 2010-02-22 21:41:31
Writing application : mkvmerge v5.9.0 ('On The Loose') built on Dec 9 2012 15:37:01
Writing library : libebml v1.3.0 + libmatroska v1.4.0

Video
ID : 1
Format : MPEG-4 Visual
Format profile : Advanced Simple@L5
Format settings, BVOP : Ναι
Format settings, QPel : Όχι
Format settings, GMC : 0 warppoint
Codec ID : V_MS/VFW/FOURCC / XVID
Codec ID/Hint : XviD
Duration : 1h 26mn
Bit rate : 1 770 Kbps
Width : 720 εικονοστοιχεία
Height : 384 εικονοστοιχεία
Display aspect ratio : 1,85:1
Frame rate : 25,000 fps
Color space : YUV
Chroma subsampling : 4:2:0
Bit depth : 8 bits
Scan type : Συνεχής σάρωση
Bits/(Pixel*Frame) : 0.256
Stream size : 1,07 GiB (78%)
Writing library : XviD 65
Default : Ναι
Forced : Όχι

Ήχος
ID : 2
Format : AC-3
Format/Info : Audio Coding 3
Mode extension : CM (complete main)
Format settings, Endianness : Big
Muxing mode : Header stripping
Codec ID : A_AC3
Duration : 1h 26mn
Bit rate : 448 Kbps
Channel(s) : 6 κανάλια
Channel positions : Front: L C R, Side: L R, LFE
Sampling rate : 48,0 KHz
Bit depth : 16 bits
Stream size : 278 MiB (20%)
Default : Ναι
Forced : Όχι

Subtitles: Brazilian,Bulgarian,Czech,Danish,English,Estonian,Finnish,French,
Greek,Indonesian,Norwegian,Polish,Portuguese,Romanian,RUS,Spanish,
Swedish,Turkish,Vietnamese
 
image
 
image
 
image		
Sniper 2 (2002) MultiSub DVDRip XviD AC3 FASTERWOLF/MultiSub/Indonesian.srt 80.527 KB
Sniper 2 (2002) MultiSub DVDRip XviD AC3 FASTERWOLF/MultiSub/Vietnamese.srt 61.238 KB
Sniper 2 (2002) MultiSub DVDRip XviD AC3 FASTERWOLF/MultiSub/RUS.srt 54.648 KB
Gathering some info...

Register and log in Isohunt and see no captcha anymore!

4000 symbols left
Hash 689d88c5cd55981efab899506cbe24097f5499b0