imdb
rating

 
1985

1985 (2016)

Drama

Full description
quality   dvdrip x264 hd bd

The Trip to Bountiful [1985] Geraldine Page

Size 1.462 GB   0 seeders     Added 2013-04-07 07:33:37

Stream torrent
Starting‥ You need BitLord! Get it from 1BitLord.com
To download or stream you need BitLord. Visit them at BitLord.com
Language: English

Subtitles: English, French, Spanish and Portuguese

IMDB: http://www.imdb.com/title/tt0090203


Carrie Watts is living the twilight of her life trapped in an apartment in 1940's Houston, Texas with a controlling daughter-in-law and a hen-pecked son. Her fondest wish -- just once before she dies -- is to revisit Bountiful, the small Texas town of her youth which she still refers to as "home." The trouble is her son, Ludie, is too concerned for her health to allow her to travel alone and her petty daughter-in-law, Jessie Mae, insists they don't have money to squander on bus tickets. This prompts "escape" attempts each month which coincide with the arrival of Mrs. Watts' Social Security check. With writing by Horton Foote - "To Kill a Mockingbird," "Tender Mercies" - this is the touching story of Mrs. Watts successful escape and last trip home.


      Format : AVI
      Format/Info : Audio Video Interleave
      File size : 1.36 GiB
      Duration : 1h 47mn
      Overall bit rate : 1 809 Kbps
      Writing application : VirtualDubMod 1.5.10.2 (build 2540/release)
      Writing library : VirtualDubMod build 2540/release
   Video #0
      ID : 0
      Format : MPEG-4 Visual
      Format settings, BVOP : Yes
      Format settings, QPel : No
      Format settings, GMC : No warppoints
      Format settings, Matrix : Default (H.263)
      Muxing mode : Packed bitstream
      Codec ID : DX50
      Codec ID/Hint : DivX 5
      Duration : 1h 47mn
      Bit rate : 1 675 Kbps
      Width : 672 pixels
      Height : 368 pixels
      Display aspect ratio : 16:9
      Frame rate : 23.976 fps
      Resolution : 24 bits
      Colorimetry : 4:2:0
      Scan type : Progressive
      Bits/(Pixel*Frame) : 0.282
      Stream size : 1.26 GiB (93%)
      Writing library : DivX 5.2.1 (WaffleDay) (UTC 2004-09-08)
   Audio #1
      ID : 1
      Format : MPEG Audio
      Format version : Version 1
      Format profile : Layer 3
      Codec ID : 55
      Codec ID/Hint : MP3
      Duration : 1h 47mn
      Bit rate mode : Variable
      Bit rate : 121 Kbps
      Nominal bit rate : 128 Kbps
      Channel(s) : 2 channels
      Sampling rate : 48.0 KHz
      Resolution : 16 bits
      Stream size : 93.4 MiB (7%)
      Alignment : Aligned on interleaves
      Interleave, duration : 24 ms (0.58 video frame)
      Interleave, preload duration : 152 ms
      Writing library : LAME3.90.
      Encoding settings : -m j -V 4 -q 2 -lowpass 17.6 --abr 128

Upped KG: newgrange


		
The Trip to Bountiful [1985] Geraldine Page/The Trip to Bountiful (1985).avi 1.462 GB
The Trip to Bountiful [1985] Geraldine Page/The Trip to Bountiful (1985).fre.srt 98.298 KB
The Trip to Bountiful [1985] Geraldine Page/The Trip to Bountiful (1985).eng.srt 96.989 KB
Gathering some info...

Register and log in Isohunt and see no captcha anymore!

4000 symbols left
Hash f247c1a6ddaa5a5e4b2d8749e7b6068ea78a4a2c

Related torrents for "The Trip to Bountiful [1985] Geraldine Page"

Torrent search:

1985