imdb
rating

6.7
Japanese Story

Japanese Story (2003)

Drama, Romance, Foreign

Full description
quality   dvdrip hdtv

Japanese Story 2003.DVDRip.DivX . NVEE

Size 1.979 GB   6 seeders     Added 2013-04-07 07:47:25

Stream torrent
Starting‥ You need BitLord! Get it from 1BitLord.com
To download or stream you need BitLord. Visit them at BitLord.com
Description

 
http://www.subtitleseeker.com/0304229/Japanese+Story/Subtitles/

77 Subtitles in 16 different languages @
 
http://www.subtitleseeker.com/0304229/Japanese+Story/Subtitles/

Subtitles can be turned On/Off

My media player of choice "VLC Media Player"
 
http://www.subtitleseeker.com/0304229/Japanese+Story/Subtitles/


General 

Complete name : Japanese Story 2003.DVDRip.DivX . NVEE 
Source : DVD
Format : AVI 
Format/Info : Audio Video Interleave 
Format profile : OpenDML 
File size : 1.84 GiB 
Duration : 1h 41mn 
Overall bit rate : 2 600 Kbps 
Writing application : DivX 3.4.1.0004 
IDFV : DMF 2.0.0 

Video 

ID : 0 
Format : MPEG-4 Visual 
Format settings, BVOP : 1 
Format settings, QPel : No 
Format settings, GMC : No warppoints 
Format settings, Matrix : Default (H.263) 
Muxing mode : Packed bitstream 
Codec ID : DX50 
Codec ID/Hint : DivX 5 
Duration : 1h 41mn 
Bit rate : 1 918 Kbps 
Width : 1 024 pixels 
Height : 440 pixels 
Display aspect ratio : 2.35:1 
Frame rate : 25.000 fps 
Color space : YUV 
Chroma subsampling : 4:2:0 
Bit depth : 8 bits 
Scan type : Progressive 
Compression mode : Lossy 
Bits/(Pixel*Frame) : 0.170 
Stream size : 1.36 GiB (74%) 
Title : Video 
Writing library : DivX 3330 

Audio #1 

ID : 1 
Format : AC-3 
Format/Info : Audio Coding 3 
Mode extension : CM (complete main) 
Format settings, Endianness : Big 
Codec ID : 2000 
Duration : 1h 41mn 
Bit rate mode : Constant 
Bit rate : 448 Kbps 
Channel(s) : 6 channels 
Channel positions : Front: L C R, Side: L R, LFE 
Sampling rate : 48.0 KHz 
Bit depth : 16 bits 
Compression mode : Lossy 
Stream size : 325 MiB (17%) 
Alignment : Split accross interleaves 
Interleave, duration : 40 ms (1.00 video frame) 
Interleave, preload duration : 500 ms 
Title : Audio 

Audio #2 

ID : 2 
Format : AC-3 
Format/Info : Audio Coding 3 
Mode extension : CM (complete main) 
Format settings, Endianness : Big 
Codec ID : 2000 
Duration : 1h 41mn 
Bit rate mode : Constant 
Bit rate : 224 Kbps 
Channel(s) : 2 channels 
Channel positions : Front: L R 
Sampling rate : 48.0 KHz 
Bit depth : 16 bits 
Compression mode : Lossy 
Stream size : 163 MiB (9%) 
Alignment : Split accross interleaves 
Interleave, duration : 40 ms (1.00 video frame) 
Interleave, preload duration : 500 ms 
Title : Audio 




Plot

Sandy Edwards (played by Toni Collette) is a director in a company designing geological software in Perth, Western Australia. Her business partner manipulates her into agreeing to act as a guide for a Japanese businessman visiting mines in the Pilbara desert, in hopes that the businessman will purchase her product and have a good impression during his trip. When Tachibana Hiromitsu (Gotaro Tsunashima) arrives, he treats Sandy like an ordinary driver, with more intent on discovering himself in the wilderness than on buying computer software. At first Sandy is angered by his private and demanding nature. During their first travel in the desert, Hiromitsu, feeling insecure, speaks more on his phone with friends in Japan than he does to Sandy driving next to him, and insists that she drives farther than planned. The terrain becomes too much for the pair's vehicle which becomes bogged down. After a series of desperate attempts to release the vehicle, including digging a dead man anchor,[4] their winch burns out. Sandy tries to contact other people for rescue through cellphone, but Hiromitsu keeps stopping her from doing so. This forces them to spend the night stranded together. The next day Hiromitsu, conscious that his actions had placed them in danger, wakes up much earlier than Sandy and builds a wooden sticks track over which they can drive out of the sand. Now that they are on the road again, the ice breaks and a friendship starts between them that, in isolated surroundings uninterrupted by their work, grows quickly and honestly. Later on at a motel, they have sexual intercourse. Only after does Sandy learn that Hiromitsu has a wife and children in Japan.
On another travel to other nature spots, Hiromitsu and Sandy share a quiet moment and kiss each other, eventually having sex again. Afterwards, Sandy takes off her shirt and runs into a swimming hole nearby, where Hiromitsu dives into shallow water before she can warn him. After a moment of frantic calling from Sandy, Hiromitsu's corpse resurfaces. In shock at his sudden death, Sandy struggles in extremity with the necessities of the situation, dragging his body into their vehicle then carefully washing it before driving for hours to reach the nearest town. Back in Perth, Sandy cannot comprehend the violent end to her journey. Reality intrudes in the form of Hiromitsu's grieving widow, leaving Sandy attempting to understand how Hiromitsu's life had ended before she had understood his place in hers.



PLEASE SEED !!!

(Thank You)		
Japanese Story 2003.DVDRip.DivX . NVEE/Japanese Story 2003.DVDRip.DivX . NVEE.divx 1.978 GB
Japanese Story 2003.DVDRip.DivX . NVEE/Japanese_Story_(2003).jpg 119.661 KB
Japanese Story 2003.DVDRip.DivX . NVEE/Japanese Story_2_display.jpg 106.608 KB
Gathering some info...

Register and log in Isohunt and see no captcha anymore!

4000 symbols left
Hash 340e2b5405bfc8d1c5aec56869873f74a94c72fc

Related torrents for "Japanese Story 2003.DVDRip.DivX . NVEE"

Torrent search:

dvdrip 2003 japanese