imdb
rating

6.5
Stand Up Guys

Stand Up Guys (2012)

Comedy, Crime, Drama

Full description

Stand Up Guys 2012 BRRiP XviD AC3 - BHRG

Size 1.601 GB   51 seeders     Added 2013-04-07 14:46:34

Stream torrent
Starting‥ You need BitLord! Get it from BitLord.com
To download or stream you need BitLord. Visit them at BitLord.com
Format                                   : AVI
Format/Info                              : Audio Video Interleave
File size                                : 698 MiB
Duration                                 : 1h 34mn
Overall bit rate                         : 1 028 Kbps

Video
ID                                       : 0
Format                                   : MPEG-4 Visual
Format profile                           : Advanced Simple@L5
Format settings, BVOP                    : 2
Format settings, QPel                    : No
Format settings, GMC                     : No warppoints
Format settings, Matrix                  : Default (H.263)
Codec ID                                 : XVID
Codec ID/Hint                            : XviD
Duration                                 : 1h 34mn
Bit rate                                 : 894 Kbps
Width                                    : 640 pixels
Height                                   : 272 pixels
Display aspect ratio                     : 2.35:1
Frame rate                               : 23.976 fps
Color space                              : YUV
Chroma subsampling                       : 4:2:0
Bit depth                                : 8 bits
Scan type                                : Progressive
Compression mode                         : Lossy
Bits/(Pixel*Frame)                       : 0.214
Stream size                              : 607 MiB (87%)
Writing library                          : XviD 1.2.1 (UTC 2008-12-04)

Audio
ID                                       : 1
Format                                   : MPEG Audio
Format version                           : Version 1
Format profile                           : Layer 3
Mode                                     : Joint stereo
Mode extension                           : MS Stereo
Codec ID                                 : 55
Codec ID/Hint                            : MP3
Duration                                 : 1h 34mn
Bit rate mode                            : Constant
Bit rate                                 : 128 Kbps
Channel(s)                               : 2 channels
Sampling rate                            : 48.0 KHz
Compression mode                         : Lossy
Stream size                              : 86.9 MiB (12%)
Alignment                                : Aligned on interleaves
Interleave, duration                     : 167 ms (4.00 video frames)
Interleave, preload duration             : 216 ms
Title                                    : Stand Up Guys 2012 720p
Writing library                          : LAME3.99r
Encoding settings                        : -m j -V 4 -q 2 -lowpass 17 -b 128

Screens: 
image 
image 
image 
image		
Stand Up Guys 2012 BRRiP XviD AC3 - BHRG/www.RARBG.com.txt 45 B
Stand Up Guys 2012 BRRiP XviD AC3 - BHRG/Stand Up Guys 2012 BRRiP XviD AC3 - BHRG.avi 1.57 GB
Stand Up Guys 2012 BRRiP XviD AC3 - BHRG/Stand Up Guys 2012 BRRiP XviD AC3 - BHRG (Sample).avi 31.001 MB
Gathering some info...

Register and log in Isohunt and see no captcha anymore!

4000 symbols left
Hash d6f7a80363480b2dd911491e4ac517cf217d51cb

Related torrents for "Stand Up Guys 2012 BRRiP XviD AC3 - BHRG"

Torrent search:

2012 bd