imdb
rating

7.7
Midnight Express

Midnight Express (1978)

Crime, Drama

Full description
quality   hd dvdrip bd x264 fullhd

Midnight.Express.1978.Greek.sub.BRRip.x264.AC3-PsiX

Size 1.881 GB   0 seeders     Added 2013-04-07 16:46:37

Stream torrent
Starting‥ You need BitLord! Get it from BitLord.com
To download or stream you need BitLord. Visit them at BitLord.com
Midnight.Express.1978.Greek.sub.BRRip.x264.AC3-PsiX




Story of a man who is caught smuggling drugs out of Turkey 
and thrown into prison.

Director:
Alan Parker
Writers:
Billy Hayes (book), William Hoffer (book)
Stars:
Brad Davis, Irene Miracle, Bo Hopkins





Format : Matroska
Format version : Version 4 / Version 2
File size : 1.75 GiB
Duration : 2h 0mn
Overall bit rate : 2 072 Kbps
Encoded date : UTC 2013-04-05 14:30:58
Writing application : mkvmerge v6.1.0 ('Old Devil') built on Mar 2 2013 14:32:37
Writing library : libebml v1.3.0 + libmatroska v1.4.0

Video
ID : 1
Format : AVC
Format/Info : Advanced Video Codec
Format profile : High@L4.1
Format settings, CABAC : Yes
Format settings, ReFrames : 5 frames
Codec ID : V_MPEG4/ISO/AVC
Duration : 2h 0mn
Bit rate : 1 687 Kbps
Width : 720 pixels
Height : 384 pixels
Display aspect ratio : 1.85:1
Frame rate mode : Constant
Frame rate : 23.976 fps
Color space : YUV
Chroma subsampling : 4:2:0
Bit depth : 8 bits
Scan type : Progressive
Bits/(Pixel*Frame) : 0.254
Stream size : 1.39 GiB (79%)
Writing library : x264 core 130 r2273 b3065e6


Audio
ID : 2
Format : AC-3
Format/Info : Audio Coding 3
Mode extension : CM (complete main)
Format settings, Endianness : Big
Codec ID : A_AC3
Duration : 2h 0mn
Bit rate mode : Constant
Bit rate : 384 Kbps
Channel(s) : 6 channels
Channel positions : Front: L C R, Side: L R, LFE
Sampling rate : 48.0 KHz
Bit depth : 16 bits
Compression mode : Lossy
Stream size : 332 MiB (19%)
Language : English
Default : Yes
Forced : No



Encoded............: PsiX
Source.............: 1080p.CiNEFiLE
Subs..................: Greek




 
image
 
image		
Midnight.Express.1978.Greek.sub.BRRip.x264.AC3-PsiX/Midnight.Express.1978.BRRip.x264.AC3-PsiX.mkv 1.88 GB
Midnight.Express.1978.Greek.sub.BRRip.x264.AC3-PsiX/Midnight.Express.1978.jpg 96.481 KB
Midnight.Express.1978.Greek.sub.BRRip.x264.AC3-PsiX/Midnight.Express.1978.BRRip.x264.AC3-PsiX.srt 43.343 KB
Gathering some info...

Register and log in Isohunt and see no captcha anymore!

4000 symbols left
Hash 5eb9b544e54e1785db1226b85f2acfd8166201c6

Related torrents for "Midnight.Express.1978.Greek.sub.BRRip.x264.AC3-PsiX"

Torrent search:

1978 x264 bd