imdb
rating

7.8
Grimm

Grimm (2011)

Drama, Fantasy, Mystery

Full description

Grimm 2x05 vostfr.mp4

Size 324.489 MB   0 seeders     Added 2013-04-07 18:26:36

Stream torrent
Starting‥ You need BitLord! Get it from BitLord.com
To download or stream you need BitLord. Visit them at BitLord.com
Grimm 2x05 vostfr.mp4
Format                                   : MPEG-4
Format profile                           : Base Media
Codec ID                                 : isom
File size                                : 309 MiB
Duration                                 : 43mn 18s
Overall bit rate mode                    : Variable
Overall bit rate                         : 999 Kbps
Encoded date                             : UTC 2012-11-15 18:19:19
Tagged date                              : UTC 2012-11-15 18:19:19
Video
ID                                       : 1
Format                                   : AVC
Format/Info                              : Advanced Video Codec
Format profile                           : High@L3.1
Format settings, CABAC                   : Yes
Format settings, ReFrames                : 4 frames
Codec ID                                 : avc1
Codec ID/Info                            : Advanced Video Coding
Duration                                 : 43mn 18s
Bit rate                                 : 871 Kbps
Maximum bit rate                         : 3 109 Kbps
Width                                    : 704 pixels
Height                                   : 400 pixels
Display aspect ratio                     : 16:9
Frame rate mode                          : Constant
Frame rate                               : 23.976 fps
Color space                              : YUV
Chroma subsampling                       : 4:2:0
Bit depth                                : 8 bits
Scan type                                : Progressive
Bits/(Pixel*Frame)                       : 0.129
Stream size                              : 270 MiB (87%)
Writing library                          : x264 core 128 r2216 198a7ea
Encoding settings                        : cabac=1 / ref=1 / deblock=1:0:0 / analyse=0x3:0x113 / me=hex / subme=7 / psy=1 / psy_rd=1.00:0.00 / mixed_ref=0 / me_range=16 / chroma_me=1 / trellis=1 / 8x8dct=1 / cqm=0 / deadzone=21,11 / fast_pskip=1 / chroma_qp_offset=-2 / threads=12 / lookahead_threads=2 / sliced_threads=0 / nr=0 / decimate=1 / interlaced=0 / bluray_compat=0 / constrained_intra=0 / bframes=3 / b_pyramid=2 / b_adapt=1 / b_bias=0 / direct=1 / weightb=1 / open_gop=0 / weightp=2 / keyint=250 / keyint_min=23 / scenecut=40 / intra_refresh=0 / rc_lookahead=40 / rc=2pass / mbtree=1 / bitrate=871 / ratetol=1.0 / qcomp=0.60 / qpmin=0 / qpmax=69 / qpstep=4 / cplxblur=20.0 / qblur=0.5 / vbv_maxrate=3000 / vbv_bufsize=1000 / nal_hrd=none / ip_ratio=1.40 / aq=1:1.00
Encoded date                             : UTC 2012-11-15 18:19:19
Tagged date                              : UTC 2012-11-15 18:19:24
Audio
ID                                       : 2
Format                                   : AAC
Format/Info                              : Advanced Audio Codec
Format profile                           : LC
Codec ID                                 : 40
Duration                                 : 43mn 18s
Bit rate mode                            : Variable
Bit rate                                 : 124 Kbps
Maximum bit rate                         : 141 Kbps
Channel(s)                               : 2 channels
Channel positions                        : Front: L R
Sampling rate                            : 48.0 KHz
Compression mode                         : Lossy
Stream size                              : 38.4 MiB (12%)
Encoded date                             : UTC 2012-11-15 18:19:23
Tagged date                              : UTC 2012-11-15 18:19:24
Grimm 2x05 vostfr.mp4 324.489 MB
Gathering some info...

Register and log in Isohunt and see no captcha anymore!

4000 symbols left
Hash da2b7e19090e7bc253858a1eb3d29caa42abf0c0

Related torrents for "Grimm 2x05 vostfr.mp4"

Torrent search:

season 02 episode 05