imdb
rating

5.7
Pawn

Pawn (2013)

Crime, Thriller

Full description
quality   x264 hd bd fullhd dvdrip dvd

Pawn.2013.BRRip XViD juggs

Size 746.547 MB   416 seeders     Added 2013-04-07 18:32:35

Stream torrent
Starting‥ You need BitLord! Get it from BitLord.com
To download or stream you need BitLord. Visit them at BitLord.com
Source : CHD (Thanks)
 
http://www.imdb.com/title/tt1551630/

Format                                   : AVI
Format/Info                              : Audio Video Interleave
File size                                : 700 MiB
Duration                                 : 1h 28mn
Overall bit rate                         : 1 107 Kbps
Writing library                          : VirtualDub build 32842/release

Video
ID                                       : 0
Format                                   : MPEG-4 Visual
Format profile                           : Advanced Simple@L5
Format settings, BVOP                    : 4
Format settings, QPel                    : No
Format settings, GMC                     : No warppoints
Format settings, Matrix                  : Default (H.263)
Muxing mode                              : Packed bitstream
Codec ID                                 : XVID
Codec ID/Hint                            : XviD
Duration                                 : 1h 28mn
Bit rate                                 : 970 Kbps
Width                                    : 640 pixels
Height                                   : 272 pixels
Display aspect ratio                     : 2.35:1
Frame rate                               : 23.976 fps
Color space                              : YUV
Chroma subsampling                       : 4:2:0
Bit depth                                : 8 bits
Scan type                                : Progressive
Compression mode                         : Lossy
Bits/(Pixel*Frame)                       : 0.232
Stream size                              : 613 MiB (88%)
Writing library                          : XviD 1.2.0.dev47 (UTC 2006-11-01)

Audio
ID                                       : 1
Format                                   : MPEG Audio
Format version                           : Version 1
Format profile                           : Layer 3
Codec ID                                 : 55
Codec ID/Hint                            : MP3
Duration                                 : 1h 28mn
Bit rate mode                            : Constant
Bit rate                                 : 128 Kbps
Channel(s)                               : 2 channels
Sampling rate                            : 44.1 KHz
Compression mode                         : Lossy
Stream size                              : 81.0 MiB (12%)
Alignment                                : Split accross interleaves
Interleave, duration                     : 42 ms (1.00 video frame)
Interleave, preload duration             : 500 ms
Writing library                          : LAME3.99r
Encoding settings                        : -m s -V 4 -q 3 -lowpass 17 -b 128


Plot
A petty robbery spirals into a tense hostage situation after three gunmen hold up a diner that's a front for the mob. 

 
image 
image 
image		
Pawn.2013.BRRip XViD juggs/Pawn.2013.BRRip XViD juggs.avi 734.357 MB
Pawn.2013.BRRip XViD juggs/Torrent Downloaded From ExtraTorrent.com.txt 339 B
Pawn.2013.BRRip XViD juggs/sample.avi 12.19 MB
Gathering some info...

Register and log in Isohunt and see no captcha anymore!

4000 symbols left
Hash a7444fa9780cc032bcb5379465814423667d4d48

Related torrents for "Pawn.2013.BRRip XViD juggs"

Torrent search:

bd 2013