imdb
rating

6.6
A Lot Like Love

A Lot Like Love (2005)

Comedy, Drama, Romance

Full description
quality   dvdr x264 hdtv hd dvdrip bd fullhd

[ www.Speed.Cd ] - A.Lot.Like.Love.2005.BRRip.XviD.RoSubbed-playXD

Size 734.842 MB   0 seeders     Added 2013-04-07 19:33:38

Stream torrent
Starting‥ You need BitLord! Get it from 1BitLord.com
To download or stream you need BitLord. Visit them at BitLord.com
-
 
http://www.Speed. Cd       the fast  and The Hottest Private Tracker on the net 
http://www.Speed. Cd

Please Seed back to make the speed Faster!!
 ............ NFO .............
-
 
http://www.Speed. CdGeneral
Complete name                    : D:uTorrent downloadsA.Lot.Like.Love.2005.BRRip.XviD.RoSubbed-playXDA.Lot.Like.Love.2005.BRRip.XviD.RoSubbed-playXD.avi
Format                           : AVI
Format/Info                      : Audio Video Interleave
File size                        : 694 MiB
Duration                         : 1h 46mn
Overall bit rate                 : 908 Kbps

Video
ID                               : 0
Format                           : MPEG-4 Visual
Format profile                   : AdvancedSimple@L5
Format settings, BVOP            : Yes
Format settings, QPel            : No
Format settings, GMC             : No warppoints
Format settings, Matrix          : Default (H.263)
Codec ID                         : XVID
Codec ID/Hint                    : XviD
Duration                         : 1h 46mn
Bit rate                         : 774 Kbps
Width                            : 640 pixels
Height                           : 352 pixels
Display aspect ratio             : 16:9
Frame rate                       : 23.976 fps
Resolution                       : 24 bits
Colorimetry                      : 4:2:0
Scan type                        : Progressive
Bits/(Pixel*Frame)               : 0.143
Stream size                      : 592 MiB (85%)
Writing library                  : XviD 1.2.1 (UTC 2008-12-04)

Audio
ID                               : 1
Format                           : MPEG Audio
Format version                   : Version 1
Format profile                   : Layer 3
Codec ID                         : 55
Codec ID/Hint                    : MP3
Duration                         : 1h 46mn
Bit rate mode                    : Constant
Bit rate                         : 128 Kbps
Channel(s)                       : 2 channels
Sampling rate                    : 48.0 KHz
Resolution                       : 16 bits
Stream size                      : 97.8 MiB (14%)
Alignment                        : Aligned on interleaves
Interleave, duration             : 167 ms (4.00 video frames)
Interleave, preload duration     : 216 ms
Title                            : A.Lot.Like.Love.2005.720p.BluRay.x264.RoSubbed-EbP - [1] English_audio
Writing library                  : LAME3.99r
Encoding settings                : -m j -V 4 -q 2 -lowpass 17 -b 128

Text
ID                               : 2
Duration                         : 1h 46mn
Bit rate                         : 77 bps
Stream size                      : 59.9 KiB (0%)
Title                            : Romanian		
[ www.Speed.Cd ] - A.Lot.Like.Love.2005.BRRip.XviD.RoSubbed-playXD/A.Lot.Like.Love.2005.BRRip.XviD.RoSubbed-playXD.avi 728.025 MB
[ www.Speed.Cd ] - A.Lot.Like.Love.2005.BRRip.XviD.RoSubbed-playXD/A.Lot.Like.Love.2005.BRRip.XviD.RoSubbed-playXD.nfo 5.154 KB
[ www.Speed.Cd ] - A.Lot.Like.Love.2005.BRRip.XviD.RoSubbed-playXD/A.Lot.Like.Love.2005.BRRip.XviD.RoSubbed-playXD.srt 59.498 KB
Gathering some info...

Register and log in Isohunt and see no captcha anymore!

4000 symbols left
Hash 4666d65a3ca71b6a56c12f2cd048ac0bc74f3525

Related torrents for "[ www.Speed.Cd ] - A.Lot.Like.Love.2005.BRRip.XviD.RoSubbed-playXD"

Torrent search:

2005 bd