imdb
rating

5.1
186 Dollars to Freedom

186 Dollars to Freedom (2012)

Action, Drama

Full description
quality   x264 hd bd dvdrip dvdr fullhd

[ www.Speed.Cd ] - 186.Dollars.To.Freedom.2012.BRRip.Xvid.AC3-playXD

Size 1.471 GB   0 seeders     Added 2013-04-07 19:33:39

Stream torrent
Starting‥ You need BitLord! Get it from 1BitLord.com
To download or stream you need BitLord. Visit them at BitLord.com
-
 
http://www.Speed. Cd       the fast  and The Hottest Private Tracker on the net 
http://www.Speed. Cd

Please Seed back to make the speed Faster!!
 ............ NFO .............
-
 
http://www.Speed. CdGeneral
Complete name                            : D:186.Dollars.To.Freedom.2012.BRRip.Xvid.AC3-playXD186.Dollars.To.Freedom.2012.BRRip.Xvid.AC3-playXD.avi
Format                                   : AVI
Format/Info                              : Audio Video Interleave
File size                                : 1.37 GiB
Duration                                 : 1h 38mn
Overall bit rate                         : 1 987 Kbps

Video
ID                                       : 0
Format                                   : MPEG-4 Visual
Format profile                           : Advanced Simple@L5
Format settings, BVOP                    : 2
Format settings, QPel                    : No
Format settings, GMC                     : No warppoints
Format settings, Matrix                  : Default (H.263)
Codec ID                                 : XVID
Codec ID/Hint                            : XviD
Duration                                 : 1h 38mn
Bit rate                                 : 1 596 Kbps
Width                                    : 720 pixels
Height                                   : 400 pixels
Display aspect ratio                     : 16:9
Frame rate                               : 23.976 fps
Color space                              : YUV
Chroma subsampling                       : 4:2:0
Bit depth                                : 8 bits
Scan type                                : Progressive
Compression mode                         : Lossy
Bits/(Pixel*Frame)                       : 0.231
Stream size                              : 1.10 GiB (80%)
Writing library                          : XviD 1.2.1 (UTC 2008-12-04)

Audio
ID                                       : 1
Format                                   : AC-3
Format/Info                              : Audio Coding 3
Mode extension                           : CM (complete main)
Format settings, Endianness              : Big
Codec ID                                 : 2000
Duration                                 : 1h 38mn
Bit rate mode                            : Constant
Bit rate                                 : 384 Kbps
Channel(s)                               : 6 channels
Channel positions                        : Front: L C R, Side: L R, LFE
Sampling rate                            : 48.0 KHz
Bit depth                                : 16 bits
Compression mode                         : Lossy
Stream size                              : 270 MiB (19%)
Alignment                                : Aligned on interleaves
Interleave, duration                     : 64 ms (1.53 video frames)
Interleave, preload duration             : 192 ms
Title                                    : 186.dollars.to.freedom.2012.720p.bluray.x264-brmp - [1]_audio		
[ www.Speed.Cd ] - 186.Dollars.To.Freedom.2012.BRRip.Xvid.AC3-playXD/186.Dollars.To.Freedom.2012.BRRip.Xvid.AC3-playXD.avi 1.466 GB
[ www.Speed.Cd ] - 186.Dollars.To.Freedom.2012.BRRip.Xvid.AC3-playXD/NFO.nfo 2.791 KB
[ www.Speed.Cd ] - 186.Dollars.To.Freedom.2012.BRRip.Xvid.AC3-playXD/Sample.avi 4.452 MB
Gathering some info...

Register and log in Isohunt and see no captcha anymore!

4000 symbols left
Hash 9b3ec95b015f3b4fe91bf564a3ff2702cf3cfa6f

Related torrents for "[ www.Speed.Cd ] - 186.Dollars.To.Freedom.2012.BRRip.Xvid.AC3-playXD"

Torrent search:

2012 bd