imdb
rating

6.5
Stand Up Guys

Stand Up Guys (2012)

Comedy, Crime, Drama

Full description

[ www.Speed.Cd ] - Stand.Up.Guys.2012.BRRip.XviD.AC3.RoSubbed-playXD

Size 1.518 GB   0 seeders     Added 2013-04-07 19:35:39

Stream torrent
Starting‥ You need BitLord! Get it from BitLord.com
To download or stream you need BitLord. Visit them at BitLord.com
-
 
http://www.Speed. Cd       the fast  and The Hottest Private Tracker on the net 
http://www.Speed. Cd

Please Seed back to make the speed Faster!!
 ............ NFO .............
-
 
http://www.Speed. CdGeneral
Complete name                            : Stand.Up.Guys.2012.BRRip.XviD.AC3.RoSubbed-playXD.avi
Format                                   : AVI
Format/Info                              : Audio Video Interleave
File size                                : 1.37 GiB
Duration                                 : 1h 34mn
Overall bit rate                         : 2 060 Kbps

Video
ID                                       : 0
Format                                   : MPEG-4 Visual
Format profile                           : Advanced Simple@L5
Format settings, BVOP                    : 2
Format settings, QPel                    : No
Format settings, GMC                     : No warppoints
Format settings, Matrix                  : Default (H.263)
Codec ID                                 : XVID
Codec ID/Hint                            : XviD
Duration                                 : 1h 34mn
Bit rate                                 : 1 668 Kbps
Width                                    : 720 pixels
Height                                   : 304 pixels
Display aspect ratio                     : 2.35:1
Frame rate                               : 23.976 fps
Color space                              : YUV
Chroma subsampling                       : 4:2:0
Bit depth                                : 8 bits
Scan type                                : Progressive
Compression mode                         : Lossy
Bits/(Pixel*Frame)                       : 0.318
Stream size                              : 1.11 GiB (81%)
Writing library                          : XviD 1.2.1 (UTC 2008-12-04)

Audio
ID                                       : 1
Format                                   : AC-3
Format/Info                              : Audio Coding 3
Mode extension                           : CM (complete main)
Format settings, Endianness              : Big
Codec ID                                 : 2000
Duration                                 : 1h 34mn
Bit rate mode                            : Constant
Bit rate                                 : 384 Kbps
Channel(s)                               : 6 channels
Channel positions                        : Front: L C R, Side: L R, LFE
Sampling rate                            : 48.0 KHz
Bit depth                                : 16 bits
Compression mode                         : Lossy
Stream size                              : 261 MiB (19%)
Alignment                                : Aligned on interleaves
Interleave, duration                     : 64 ms (1.53 video frames)
Interleave, preload duration             : 192 ms
Title                                    : marked-supg.720p - [1] English_audio		
[ www.Speed.Cd ] - Stand.Up.Guys.2012.BRRip.XviD.AC3.RoSubbed-playXD/playxd.nfo 2.719 KB
[ www.Speed.Cd ] - Stand.Up.Guys.2012.BRRip.XviD.AC3.RoSubbed-playXD/Romanian.srt 78.922 KB
[ www.Speed.Cd ] - Stand.Up.Guys.2012.BRRip.XviD.AC3.RoSubbed-playXD/Sample/Stand.Up.Guys.2012.BRRip.XviD.AC3.RoSubbed-playXD.avi 50.688 MB
Gathering some info...

Register and log in Isohunt and see no captcha anymore!

4000 symbols left
Hash 19c934d896b410d1a8526aa5eb7b6b6d3aedc749

Related torrents for "[ www.Speed.Cd ] - Stand.Up.Guys.2012.BRRip.XviD.AC3.RoSubbed-playXD"

Torrent search:

2012 bd