imdb
rating

5.9
The Host

The Host (2013)

Action, Adventure, Science Fiction, Thriller, Romance

Full description

The Host 2013 CAM XViD OPTiMUM

Size 770.245 MB   0 seeders     Added 2013-04-08 20:01:36

Stream torrent
Starting‥ You need BitLord! Get it from 1BitLord.com
To download or stream you need BitLord. Visit them at BitLord.com
Format                                   : AVI
Format/Info                              : Audio Video Interleave
File size                                : 727 MiB
Duration                                 : 1h 51mn
Overall bit rate                         : 910 Kbps
Writing application                      : VirtualDubMod 1.5.10.2 (build 2540/release)
Writing library                          : VirtualDubMod build 2540/release

Video
ID                                       : 0
Format                                   : MPEG-4 Visual
Format profile                           : Advanced Simple@L5
Format settings, BVOP                    : 2
Format settings, QPel                    : No
Format settings, GMC                     : No warppoints
Format settings, Matrix                  : Default (H.263)
Muxing mode                              : Packed bitstream
Codec ID                                 : XVID
Codec ID/Hint                            : XviD
Duration                                 : 1h 51mn
Bit rate                                 : 772 Kbps
Width                                    : 720 pixels
Height                                   : 288 pixels
Display aspect ratio                     : 2.500
Frame rate                               : 25.000 fps
Color space                              : YUV
Chroma subsampling                       : 4:2:0
Bit depth                                : 8 bits
Scan type                                : Progressive
Compression mode                         : Lossy
Bits/(Pixel*Frame)                       : 0.149
Stream size                              : 617 MiB (85%)
Writing library                          : XviD 64

Audio
ID                                       : 1
Format                                   : MPEG Audio
Format version                           : Version 1
Format profile                           : Layer 3
Mode                                     : Joint stereo
Mode extension                           : MS Stereo
Codec ID                                 : 55
Codec ID/Hint                            : MP3
Duration                                 : 1h 51mn
Bit rate mode                            : Constant
Bit rate                                 : 128 Kbps
Channel(s)                               : 2 channels
Sampling rate                            : 48.0 KHz
Compression mode                         : Lossy
Stream size                              : 102 MiB (14%)
Alignment                                : Split accross interleaves
Interleave, duration                     : 40 ms (1.00 video frame)
Interleave, preload duration             : 500 ms






Source Used

The.Host.2013.READNFO.CAM.XviD.HUN-BEOWULF/The_Host_2013_CAM_ENGLISH / Thanks

Screens:
 
image 
image 
image 
image
		
The Host 2013 CAM XViD OPTiMUM/www.RARBG.com.txt 45 B
The Host 2013 CAM XViD OPTiMUM/s2.avi 3.111 MB
The Host 2013 CAM XViD OPTiMUM/s1.avi 4.358 MB
Gathering some info...

Register and log in Isohunt and see no captcha anymore!

4000 symbols left
Hash 2ddf01821dfec5d9cff04eecb406178aaa794b67

Related torrents for "The Host 2013 CAM XViD OPTiMUM"

Torrent search:

cam 2013