imdb
rating

6.5
The Grandmaster

The Grandmaster (2013)

Action, Drama, History

Full description

The Grandmaster 2013 ENG.flv

Size 444.85 MB   0 seeders     Added 2013-04-09 03:47:37

Stream torrent
Starting‥ You need BitLord! Get it from 1BitLord.com
To download or stream you need BitLord. Visit them at BitLord.com
Video
Format                         : AVC
Format/Info                    : Advanced Video Codec
Format profile                 : Main@L3.0
Format settings, CABAC         : Yes
Format settings, ReFrames      : 3 frames
Codec ID                       : 7
Duration                       : 2h 6mn
Bit rate                       : 333 Kbps
Width                          : 636 pixels
Height                         : 360 pixels
Display aspect ratio           : 16:9
Frame rate mode                : Constant
Frame rate                     : 24.000 fps
Color space                    : YUV
Chroma subsampling             : 4:2:0
Bit depth                      : 8 bits
Scan type                      : Progressive
Bits/(Pixel*Frame)             : 0.061
Stream size                    : 301 MiB (71%)

Audio
Format                         : AAC
Format/Info                    : Advanced Audio Codec
Format profile                 : LC
Codec ID                       : 10
Duration                       : 2h 6mn
Bit rate                       : 129 Kbps
Channel(s)                     : 2 channels
Channel positions              : Front: L R
Sampling rate                  : 44.1 KHz
Compression mode               : Lossy
Stream size                    : 116 MiB (27%)
		
The Grandmaster 2013 ENG.flv 444.85 MB
Gathering some info...

Register and log in Isohunt and see no captcha anymore!

4000 symbols left
Hash 3142f4c518b12727c829b842071d3b0d9a130898

Related torrents for "The Grandmaster 2013 ENG.flv"

Torrent search:

english 2013