Hanezu.mkv

Size 1.401 GB   0 seeders     Added 2013-04-10 00:34:36

Stream torrent
Starting‚Ä• You need BitLord! Get it from BitLord.com
To download or stream you need BitLord. Visit them at BitLord.com
A woman is torn between two men and two ways of life in this drama from writer and director Naomi Kawase. Kayoko (Hako Oshima) lives a serene existence in Asuka, a village where nature and civilization live in harmony, and she spends her days making scarves and dying them crimson using natural materials. Kayoko shares her home with her long-time boyfriend Tetsuya (Tetsuya Akikawa), who makes his living in the publishing industry and tends his garden in his spare time. From rottentomatoes

SUBS: English
 
http://www.imdb.com/title/tt1896753/

General
Complete name : Hanezu.mkv
Format : Matroska
Format version : Version 2
File size : 1.30 GiB
Duration : 1h 30mn
Overall bit rate : 2 058 Kbps
Movie name : Hanezu no tsuki
Encoded date : UTC 2012-12-29 21:19:49
Writing application : Lavf54.49.102
Writing library : Lavf54.49.102

Video
ID : 1
Format : AVC
Format/Info : Advanced Video Codec
Format profile : High@L4.1
Format settings, CABAC : Yes
Format settings, ReFrames : 5 frames
Codec ID : V_MPEG4/ISO/AVC
Duration : 1h 30mn
Bit rate : 1 800 Kbps
Width : 832 pixels
Height : 468 pixels
Display aspect ratio : 16:9
Frame rate mode : Constant
Frame rate : 23.976 fps
Color space : YUV
Chroma subsampling : 4:2:0
Bit depth : 8 bits
Scan type : Progressive
Bits/(Pixel*Frame) : 0.193
Stream size : 1.12 GiB (86%)
Writing library : x264 core 129 r2230
Encoding settings : cabac=1 / ref=6 / deblock=1:-2:-1 / analyse=0x3:0x133 / me=umh / subme=7 / psy=1 / psy_rd=1.00:0.20 / mixed_ref=0 / me_range=24 / chroma_me=1 / trellis=2 / 8x8dct=1 / cqm=0 / deadzone=21,11 / fast_pskip=1 / chroma_qp_offset=-3 / threads=12 / lookahead_threads=2 / sliced_threads=0 / nr=0 / decimate=1 / interlaced=0 / bluray_compat=0 / constrained_intra=0 / bframes=5 / b_pyramid=1 / b_adapt=2 / b_bias=0 / direct=3 / weightb=1 / open_gop=0 / weightp=2 / keyint=250 / keyint_min=23 / scenecut=40 / intra_refresh=0 / rc_lookahead=50 / rc=2pass / mbtree=1 / bitrate=1800 / ratetol=1.0 / qcomp=0.60 / qpmin=10 / qpmax=30 / qpstep=4 / cplxblur=20.0 / qblur=0.5 / vbv_maxrate=24000 / vbv_bufsize=24000 / nal_hrd=none / ip_ratio=1.40 / aq=1:1.00
Default : Yes
Forced : No

Audio
ID : 2
Format : AC-3
Format/Info : Audio Coding 3
Mode extension : CM (complete main)
Format settings, Endianness : Big
Codec ID : A_AC3
Duration : 1h 30mn
Bit rate mode : Constant
Bit rate : 256 Kbps
Channel(s) : 2 channels
Channel positions : Front: L R
Sampling rate : 48.0 KHz
Bit depth : 16 bits
Compression mode : Lossy
Delay relative to video : 1mn 5s
Stream size : 166 MiB (12%)
Language : Japanese
Default : Yes
Forced : No

Thanks to wlfthirteen @ KG.		
Hanezu.mkv 1.401 GB
Gathering some info...

Register and log in Isohunt and see no captcha anymore!

4000 symbols left
Hash 3734b4acc58360c67d2b958593d86c55515e328f

Related torrents for "Hanezu.mkv"