imdb
rating

6.3
UPA! Una película argentina

UPA! Una película argentina (2007)

Full description
quality   dvdrip

Upa.Una.Pelicula.Argentina.DVDRiP.XviD.Spanish.Latino.[www.LatinoDivx.com] Verified

Size 732.592 MB   0 seeders     Added 2013-04-10 12:25:35

Stream torrent
Starting‥ You need BitLord! Get it from 1BitLord.com
To download or stream you need BitLord. Visit them at BitLord.com
UPA! Una película argentina (2007)
Nina, Ailén and Fernando are an actress, a producer and a director who want to shoot and independent feature film in Argentina.
http://www.imdb.com/title/tt1001412/
Format                                   : AVI
Format/Info                              : Audio Video Interleave
File size                                : 699 MiB
Duration                                 : 1h 33mn
Overall bit rate                         : 1 049 Kbps
Writing application                      : Nandub v1.0rc2
Writing library                          : Nandub build 1852/release
Video
ID                                       : 0
Format                                   : MPEG-4 Visual
Format profile                           : Advanced Simple@L5
Format settings, BVOP                    : 2
Format settings, QPel                    : No
Format settings, GMC                     : No warppoints
Format settings, Matrix                  : Default (H.263)
Codec ID                                 : XVID
Codec ID/Hint                            : XviD
Duration                                 : 1h 33mn
Bit rate                                 : 907 Kbps
Width                                    : 560 pixels
Height                                   : 304 pixels
Display aspect ratio                     : 1.85:1
Frame rate                               : 29.970 fps
Color space                              : YUV
Chroma subsampling                       : 4:2:0
Bit depth                                : 8 bits
Scan type                                : Progressive
Compression mode                         : Lossy
Bits/(Pixel*Frame)                       : 0.178
Stream size                              : 604 MiB (86%)
Writing library                          : XviD 1.1.0 (UTC 2005-11-22)
Audio
ID                                       : 1
Format                                   : MPEG Audio
Format version                           : Version 1
Format profile                           : Layer 3
Mode                                     : Joint stereo
Codec ID                                 : 55
Codec ID/Hint                            : MP3
Duration                                 : 1h 33mn
Bit rate mode                            : Constant
Bit rate                                 : 128 Kbps
Channel(s)                               : 2 channels
Sampling rate                            : 48.0 KHz
Compression mode                         : Lossy
Stream size                              : 85.3 MiB (12%)
Alignment                                : Aligned on interleaves
Interleave, duration                     : 24 ms (0.72 video frame)
Interleave, preload duration             : 480 ms
Upa.Una.Pelicula.Argentina.DVDRiP.XviD.Spanish.Latino.[www.LatinoDivx.com]/Upa.Una.Pelicula.Argentina.DVDRiP.XviD.Spanish.Latino.[www.LatinoDivx.com].avi 732.592 MB
Gathering some info...

Register and log in Isohunt and see no captcha anymore!

4000 symbols left
Hash fd2b6903d97f756ad8e54a059b8511f4b9cec517