imdb
rating

7.8
Hart Of Dixie

Hart Of Dixie (2011)

Comedy, Drama, Romance/Dating

Full description

Hart of Dixie 2x09 fastsub vostfr.mp4

Size 348.96 MB   0 seeders     Added 2013-04-10 15:16:39

Stream torrent
Starting‥ You need BitLord! Get it from BitLord.com
To download or stream you need BitLord. Visit them at BitLord.com
Hart of Dixie 2x09 fastsub vostfr.mp4
Format                                   : MPEG-4
Format profile                           : Base Media
Codec ID                                 : isom
File size                                : 333 MiB
Duration                                 : 41mn 42s
Overall bit rate mode                    : Variable
Overall bit rate                         : 1 115 Kbps
Encoded date                             : UTC 2012-12-04 17:44:32
Tagged date                              : UTC 2012-12-04 17:44:32

Video
ID                                       : 1
Format                                   : AVC
Format/Info                              : Advanced Video Codec
Format profile                           : High@L3.1
Format settings, CABAC                   : Yes
Format settings, ReFrames                : 4 frames
Codec ID                                 : avc1
Codec ID/Info                            : Advanced Video Coding
Duration                                 : 41mn 42s
Bit rate                                 : 988 Kbps
Maximum bit rate                         : 2 475 Kbps
Width                                    : 720 pixels
Height                                   : 400 pixels
Display aspect ratio                     : 16:9
Frame rate mode                          : Constant
Frame rate                               : 23.976 fps
Color space                              : YUV
Chroma subsampling                       : 4:2:0
Bit depth                                : 8 bits
Scan type                                : Progressive
Bits/(Pixel*Frame)                       : 0.143
Stream size                              : 295 MiB (89%)
Writing library                          : x264 core 118 r2085 8a62835
Encoding settings                        : cabac=1 / ref=1 / deblock=1:0:0 / analyse=0x3:0x113 / me=hex / subme=7 / psy=1 / psy_rd=1.00:0.00 / mixed_ref=0 / me_range=16 / chroma_me=1 / trellis=1 / 8x8dct=1 / cqm=0 / deadzone=21,11 / fast_pskip=1 / chroma_qp_offset=-2 / threads=12 / sliced_threads=0 / nr=0 / decimate=1 / interlaced=0 / bluray_compat=0 / constrained_intra=0 / bframes=3 / b_pyramid=2 / b_adapt=1 / b_bias=0 / direct=1 / weightb=1 / open_gop=0 / weightp=2 / keyint=250 / keyint_min=23 / scenecut=40 / intra_refresh=0 / rc_lookahead=40 / rc=2pass / mbtree=1 / bitrate=988 / ratetol=1.0 / qcomp=0.60 / qpmin=0 / qpmax=69 / qpstep=4 / cplxblur=20.0 / qblur=0.5 / vbv_maxrate=3000 / vbv_bufsize=1000 / nal_hrd=none / ip_ratio=1.40 / aq=1:1.00
Encoded date                             : UTC 2012-12-04 17:44:32
Tagged date                              : UTC 2012-12-04 17:44:38

Audio
ID                                       : 2
Format                                   : AAC
Format/Info                              : Advanced Audio Codec
Format profile                           : LC
Codec ID                                 : 40
Duration                                 : 41mn 42s
Bit rate mode                            : Variable
Bit rate                                 : 124 Kbps
Maximum bit rate                         : 151 Kbps
Channel(s)                               : 2 channels
Channel positions                        : Front: L R
Sampling rate                            : 48.0 KHz
Compression mode                         : Lossy
Stream size                              : 36.9 MiB (11%)
Encoded date                             : UTC 2012-12-04 17:44:36
Tagged date                              : UTC 2012-12-04 17:44:38

		
Hart of Dixie 2x09 fastsub vostfr.mp4 348.96 MB
Gathering some info...

Register and log in Isohunt and see no captcha anymore!

4000 symbols left
Hash e6faecb49939a36703efa9dafade92367a1ee6c9

Related torrents for "Hart of Dixie 2x09 fastsub vostfr.mp4"

Torrent search:

season 02 episode 09