Hypothermia.2010 BRRip XViD juggs

Size 737.798 MB   0 seeders     Added 2013-04-11 07:02:35

Stream torrent
Starting‚Ä• You need BitLord! Get it from BitLord.com
To download or stream you need BitLord. Visit them at BitLord.com
Source : BARCODE(Thanks)
 
http://www.imdb.com/title/tt1313244/

Format                                   : AVI
Format/Info                              : Audio Video Interleave
File size                                : 699 MiB
Duration                                 : 1h 12mn
Overall bit rate                         : 1 344 Kbps
Writing library                          : VirtualDub build 32842/release

Video
ID                                       : 0
Format                                   : MPEG-4 Visual
Format profile                           : Advanced Simple@L5
Format settings, BVOP                    : 2
Format settings, QPel                    : No
Format settings, GMC                     : No warppoints
Format settings, Matrix                  : Default (H.263)
Muxing mode                              : Packed bitstream
Codec ID                                 : XVID
Codec ID/Hint                            : XviD
Duration                                 : 1h 12mn
Bit rate                                 : 1 206 Kbps
Width                                    : 640 pixels
Height                                   : 352 pixels
Display aspect ratio                     : 16:9
Frame rate                               : 23.976 fps
Color space                              : YUV
Chroma subsampling                       : 4:2:0
Bit depth                                : 8 bits
Scan type                                : Progressive
Compression mode                         : Lossy
Bits/(Pixel*Frame)                       : 0.223
Stream size                              : 627 MiB (90%)
Writing library                          : XviD 1.2.0.dev47 (UTC 2006-11-01)

Audio
ID                                       : 1
Format                                   : MPEG Audio
Format version                           : Version 1
Format profile                           : Layer 3
Codec ID                                 : 55
Codec ID/Hint                            : MP3
Duration                                 : 1h 12mn
Bit rate mode                            : Constant
Bit rate                                 : 128 Kbps
Channel(s)                               : 2 channels
Sampling rate                            : 44.1 KHz
Compression mode                         : Lossy
Stream size                              : 66.6 MiB (10%)
Alignment                                : Split accross interleaves
Interleave, duration                     : 42 ms (1.00 video frame)
Interleave, preload duration             : 500 ms
Writing library                          : LAME3.99r
Encoding settings                        : -m s -V 4 -q 3 -lowpass 17 -b 128

Plot
Ray Pelletier just wants to spend a pleasant and relaxing weekend ice fishing with his family. Alas, Ray's plans are ruined by the unwanted presence of the obnoxious big city father and son duo of Steve Cote and Stevie Jr. However, the two squabbling families are forced to set aside their differences and work together after a vicious monster awakens from the cold waters of the remote frozen lake area they are staying at.
 
image 
image 
image		
Hypothermia.2010 BRRip XViD juggs/Hypothermia.2010 BRRip XViD juggs.avi 732.917 MB
Hypothermia.2010 BRRip XViD juggs/Torrent Downloaded From ExtraTorrent.com.txt 339 B
Hypothermia.2010 BRRip XViD juggs/sample.avi 4.88 MB
Gathering some info...

Register and log in Isohunt and see no captcha anymore!

4000 symbols left
Hash f230361c8eadc7f21f85a700863a448828522e61