[ www.Speed.Cd ] - Temptation 2013 CAM XViD - JUSTiCE

Size 1.499 GB   1 seeders     Added 2013-04-11 09:01:33

Stream torrent
Starting‥ You need BitLord! Get it from BitLord.com
To download or stream you need BitLord. Visit them at BitLord.com
-
 
http://www.Speed. Cd       the fast  and The Hottest Private Tracker on the net 
http://www.Speed. Cd

Please Seed back to make the speed Faster!!
 ............ NFO .............
-
 
http://www.Speed. CdTemptation 2013 CAM XViD - JUSTiCE



SOURCE : HP


Video and audio both cleaned and given justice.
Check sample and see.....


Video
ID                               : 0
Format                           : MPEG-4 Visual
Format profile                   : Advanced Simple@L5
Format settings, BVOP            : 2
Format settings, QPel            : No
Format settings, GMC             : No warppoints
Format settings, Matrix          : Default (MPEG)
Muxing mode                      : Packed bitstream
Codec ID                         : XVID
Codec ID/Hint                    : XviD
Duration                         : 1h 46mn
Bit rate                         : 1 713 Kbps
Width                            : 624 pixels
Height                           : 320 pixels
Display aspect ratio             : 1.950
Frame rate                       : 29.970 fps
Color space                      : YUV
Chroma subsampling               : 4:2:0
Bit depth                        : 8 bits
Scan type                        : Progressive
Compression mode                 : Lossy
Bits/(Pixel*Frame)               : 0.286
Stream size                      : 1.27 GiB (92%)
Writing library                  : XviD 64

Audio
ID                               : 1
Format                           : MPEG Audio
Format version                   : Version 1
Format profile                   : Layer 3
Mode                             : Joint stereo
Mode extension                   : MS Stereo
Codec ID                         : 55
Codec ID/Hint                    : MP3
Duration                         : 1h 46mn
Bit rate mode                    : Constant
Bit rate                         : 128 Kbps
Channel(s)                       : 2 channels
Sampling rate                    : 48.0 KHz
Compression mode                 : Lossy
Stream size                      : 97.4 MiB (7%)
Alignment                        : Split accross interleaves
Interleave, duration             : 33 ms (1.00 video frame)
Interleave, preload duration     : 500 ms



[IMG]image[/IMG]
[IMG]image[/IMG]
[IMG]image[/IMG]
[IMG]image[/IMG]
[IMG]image[/IMG]		
[ www.Speed.Cd ] - Temptation 2013 CAM XViD - JUSTiCE/sample.avi 19.977 MB
[ www.Speed.Cd ] - Temptation 2013 CAM XViD - JUSTiCE/Temptation 2013 CAM XViD - JUSTiCE.avi 1.479 GB
[ www.Speed.Cd ] - Temptation 2013 CAM XViD - JUSTiCE/Temptation 2013 CAM XViD - JUSTiCE.nfo 2.343 KB
Gathering some info...

Register and log in Isohunt and see no captcha anymore!

4000 symbols left
Hash 8742ae7772bdb4f19b9c750af9c39873ee0a2b88

Related torrents for "[ www.Speed.Cd ] - Temptation 2013 CAM XViD - JUSTiCE"

Torrent search:

cam 2013