imdb
rating

6.3
Jack the Giant Slayer

Jack the Giant Slayer (2013)

Action

Full description
quality   dvdrip x264 telesync hd bd

[ www.Speed.Cd ] - Jack The Giant Slayer 2013 CAM XViD - JUSTiCE

Size 1.507 GB   0 seeders     Added 2013-04-11 09:01:36

Stream torrent
Starting‥ You need BitLord! Get it from BitLord.com
To download or stream you need BitLord. Visit them at BitLord.com
-
 
http://www.Speed. Cd       the fast  and The Hottest Private Tracker on the net 
http://www.Speed. Cd

Please Seed back to make the speed Faster!!
 ............ NFO .............
-
 
http://www.Speed. CdJack The Giant Slayer 2013 CAM XViD - JUSTiCE


SOURCE : HP


Video and audio both cleaned and given justice.
Check sample and see.....


Video
ID                               : 0
Format                           : MPEG-4 Visual
Format profile                   : Advanced Simple@L5
Format settings, BVOP            : 2
Format settings, QPel            : No
Format settings, GMC             : No warppoints
Format settings, Matrix          : Default (MPEG)
Muxing mode                      : Packed bitstream
Codec ID                         : XVID
Codec ID/Hint                    : XviD
Duration                         : 1h 43mn
Bit rate                         : 1 767 Kbps
Width                            : 624 pixels
Height                           : 320 pixels
Display aspect ratio             : 1.950
Frame rate                       : 29.970 fps
Color space                      : YUV
Chroma subsampling               : 4:2:0
Bit depth                        : 8 bits
Scan type                        : Progressive
Compression mode                 : Lossy
Bits/(Pixel*Frame)               : 0.295
Stream size                      : 1.28 GiB (93%)
Writing library                  : XviD 64

Audio
ID                               : 1
Format                           : MPEG Audio
Format version                   : Version 1
Format profile                   : Layer 3
Mode                             : Joint stereo
Mode extension                   : MS Stereo
Codec ID                         : 55
Codec ID/Hint                    : MP3
Duration                         : 1h 43mn
Bit rate mode                    : Constant
Bit rate                         : 128 Kbps
Channel(s)                       : 2 channels
Sampling rate                    : 48.0 KHz
Compression mode                 : Lossy
Stream size                      : 94.9 MiB (7%)
Alignment                        : Split accross interleaves
Interleave, duration             : 33 ms (1.00 video frame)
Interleave, preload duration     : 500 ms


[IMG]image[/IMG]
[IMG]image[/IMG]
[IMG]image[/IMG]
[IMG]image[/IMG]
[IMG]image[/IMG]		
[ www.Speed.Cd ] - Jack The Giant Slayer 2013 CAM XViD - JUSTiCE/Jack The Giant Slayer 2013 CAM XViD - JUSTiCE.avi 1.483 GB
[ www.Speed.Cd ] - Jack The Giant Slayer 2013 CAM XViD - JUSTiCE/Jack The Giant Slayer 2013 CAM XViD - JUSTiCE.nfo 2.35 KB
[ www.Speed.Cd ] - Jack The Giant Slayer 2013 CAM XViD - JUSTiCE/sample.avi 24.314 MB
Gathering some info...

Register and log in Isohunt and see no captcha anymore!

4000 symbols left
Hash 1d5ff5b9bc5ab2bb909ec4fa503450bea4156f2a

Related torrents for "[ www.Speed.Cd ] - Jack The Giant Slayer 2013 CAM XViD - JUSTiCE"

Torrent search:

cam 2013