imdb
rating

6.8
Liberal Arts

Liberal Arts (2012)

Comedy, Drama

Full description

Liberal.Arts.2012.DVDRip.SweSub.Xvid

Size 733.928 MB   34 seeders     Added 2013-04-11 15:24:28

Stream torrent
Starting‥ You need BitLord! Get it from 1BitLord.com
To download or stream you need BitLord. Visit them at BitLord.com
                     Swedish Hardsub
http://www.imdb.com/title/tt1872818/
General
Complete name                       : Liberal.Arts.2012.DVDRip.SweSub.Xvid.avi
Format                              : AVI
Format/Info                         : Audio Video Interleave
File size                           : 700 MiB
Duration                            : 1h 33mn
Video
ID                                  : 0
Format                              : MPEG-4 Visual
Format profile                      : Advanced Simple@L5
Format settings, BVOP               : 2
Format settings, QPel               : No
Format settings, GMC                : No warppoints
Format settings, Matrix             : Default (H.263)
Muxing mode                         : Packed bitstream
Codec ID                            : XVID
Codec ID/Hint                       : XviD
Duration                            : 1h 33mn
Bit rate                            : 905 Kbps
Width                               : 720 pixels
Height                              : 304 pixels
Display aspect ratio                : 2.35:1
Frame rate                          : 25.000 fps
Color space                         : YUV
Chroma subsampling                  : 4:2:0
Bit depth                           : 8 bits
Scan type                           : Progressive
Compression mode                    : Lossy
Bits/(Pixel*Frame)                  : 0.165
Stream size                         : 604 MiB (86%)
Writing library                     : XviD 73
Audio
ID                                  : 1
Format                              : MPEG Audio
Format version                      : Version 1
Format profile                      : Layer 3
Mode                                : Joint stereo
Mode extension                      : MS Stereo
Codec ID                            : 55
Codec ID/Hint                       : MP3
Duration                            : 1h 33mn
Bit rate mode                       : Variable
Bit rate                            : 128 Kbps
Channel(s)                          : 2 channels
Sampling rate                       : 48.0 KHz
Compression mode                    : Lossy
Stream size                         : 87.3 MiB (12%)
Alignment                           : Aligned on interleaves
Interleave, duration                : 24 ms (0.60 video frame)
Interleave, preload duration        : 140 ms
Writing library                     : LAME3.90.
Encoding settings                   : -m j -V 4 -q 2 -lowpass 17.6 --abr 128
Liberal.Arts.2012.DVDRip.SweSub.Xvid/Liberal.Arts.2012.DVDRip.SweSub.Xvid.avi 733.925 MB
Liberal.Arts.2012.DVDRip.SweSub.Xvid/Liberal.Arts.2012.DVDRip.SweSub.Xvid.avi - MediaInfo.log 2.588 KB
Gathering some info...

Register and log in Isohunt and see no captcha anymore!

4000 symbols left
Hash d511f06fd73a7ecf9294d8bda88045a78c4828c4

Related torrents for "Liberal.Arts.2012.DVDRip.SweSub.Xvid"

Torrent search:

dvdrip 2012