imdb
rating

5.1
A Haunted House

A Haunted House (2013)

Comedy, Horror

Full description
quality   dvdrip h264 hd cam screener

A.Haunted.House.2013.DVDRiP.AC3-5.1.XviD-AXED

Size 1.486 GB   28 seeders     Added 2013-04-11 18:31:27

Stream torrent
Starting‥ You need BitLord! Get it from 1BitLord.com
To download or stream you need BitLord. Visit them at BitLord.com
A Haunted House 2013 DVDRiP AC3-5 1 XviD-AXED

IMDB:  
http://www.imdb.com/title/tt2243537/

PLOT INFO:
Malcolm and Kisha move into their dream home, but soon learn a demon also resides there. When Kisha becomes possessed, Malcolm - determined to keep his sex life on track - turns to a priest, a psychic, and a team of ghost-busters for help.

Media Info: 

General
Complete name                    : A.Haunted.House.2013.DVDRiP.AC3-5.1.XviD-AXED.avi
Format                           : AVI
Format/Info                      : Audio Video Interleave
File size                        : 1.37 GiB
Duration                         : 1h 26mn
Overall bit rate                 : 2 269 Kbps

Video
ID                               : 0
Format                           : MPEG-4 Visual
Format profile                   : Advanced Simple@L5
Format settings, BVOP            : 1
Format settings, QPel            : No
Format settings, GMC             : No warppoints
Format settings, Matrix          : Default (H.263)
Codec ID                         : XVID
Codec ID/Hint                    : XviD
Duration                         : 1h 26mn
Bit rate                         : 1 813 Kbps
Width                            : 720 pixels
Height                           : 384 pixels
Display aspect ratio             : 1.875
Frame rate                       : 23.976 fps
Color space                      : YUV
Chroma subsampling               : 4:2:0
Bit depth                        : 8 bits
Scan type                        : Progressive
Compression mode                 : Lossy
Bits/(Pixel*Frame)               : 0.274
Stream size                      : 1.09 GiB (80%)
Writing library                  : XviD 1.2.1 (UTC 2008-12-04)

Audio
ID                               : 1
Format                           : AC-3
Format/Info                      : Audio Coding 3
Mode extension                   : CM (complete main)
Codec ID                         : 2000
Duration                         : 1h 26mn
Bit rate mode                    : Constant
Bit rate                         : 448 Kbps
Channel(s)                       : 6 channels
Channel positions                : Front: L C R, Side: L R, LFE
Sampling rate                    : 48.0 KHz
Bit depth                        : 16 bits
Compression mode                 : Lossy
Stream size                      : 277 MiB (20%)
Alignment                        : Aligned on interleaves
Interleave, duration             : 64 ms (1.53 video frames)
Interleave, preload duration     : 192 ms
Title                            : VTS_07_1 T80 3_2ch 448Kbps DELAY 0ms

SOURCE: 
RA/R1 Blu Ray/DVD Combo RETAIL DISC
NOTES: 
Not my kind of thing, but I know some of you like crap like this. Scary Movie 5 hits theaters this weekend, so, why not make it a double feature? BlU Ray to follow, if nobody else gets it out first. 

AXED! We do this better.


Poster:

 
image


Screenshots:

 
image


SEED AND ENJOY!		
A.Haunted.House.2013.DVDRiP.AC3-5.1.XviD-AXED/SAMPLE.avi 14.857 MB
A.Haunted.House.2013.DVDRiP.AC3-5.1.XviD-AXED/A.Haunted.House.2013.DVDRiP.AC3-5.1.XviD-AXED.nfo 3.848 KB
A.Haunted.House.2013.DVDRiP.AC3-5.1.XviD-AXED/A.Haunted.House.2013.DVDRiP.AC3-5.1.XviD-AXED.avi 1.471 GB
Gathering some info...

Register and log in Isohunt and see no captcha anymore!

4000 symbols left
Hash ef4fa80f3f072dda8bb868ef94cc06aaaceac463

Related torrents for "A.Haunted.House.2013.DVDRiP.AC3-5.1.XviD-AXED"

Torrent search:

dvdrip 2013