imdb
rating

5.1
A Haunted House

A Haunted House (2013)

Comedy, Horror

Full description
quality   dvdrip h264 hd cam screener

A Haunted House 2013 DVDRiP Xvid-BHRG

Size 747.74 MB   0 seeders     Added 2013-04-11 19:16:30

Stream torrent
Starting‥ You need BitLord! Get it from BitLord.com
To download or stream you need BitLord. Visit them at BitLord.com
File size                        : 702 MiB
Duration                         : 1h 26mn
Overall bit rate                 : 1 135 Kbps

Video
ID                               : 0
Format                           : MPEG-4 Visual
Format profile                   : Advanced Simple@L5
Format settings, BVOP            : 2
Format settings, QPel            : No
Format settings, GMC             : No warppoints
Format settings, Matrix          : Default (H.263)
Codec ID                         : XVID
Codec ID/Hint                    : XviD
Duration                         : 1h 26mn
Bit rate                         : 1 001 Kbps
Width                            : 624 pixels
Height                           : 336 pixels
Display aspect ratio             : 1.857
Frame rate                       : 23.976 fps
Color space                      : YUV
Chroma subsampling               : 4:2:0
Bit depth                        : 8 bits
Scan type                        : Progressive
Compression mode                 : Lossy
Bits/(Pixel*Frame)               : 0.199
Stream size                      : 619 MiB (88%)
Writing library                  : XviD 1.2.1 (UTC 2008-12-04)

Audio
ID                               : 1
Format                           : MPEG Audio
Format version                   : Version 1
Format profile                   : Layer 3
Mode                             : Joint stereo
Codec ID                         : 55
Codec ID/Hint                    : MP3
Duration                         : 1h 26mn
Bit rate mode                    : Constant
Bit rate                         : 128 Kbps
Channel(s)                       : 2 channels
Sampling rate                    : 48.0 KHz
Compression mode                 : Lossy
Stream size                      : 79.1 MiB (11%)
Alignment                        : Aligned on interleaves
Interleave, duration             : 167 ms (4.00 video frames)
Interleave, preload duration     : 216 ms
Title                            : A.Haunted.House.2013.DVDRiP.AC3-5.1.XviD-AXED.avi_track_1_
Writing library                  : LAME3.99r
Encoding settings                : -m j -V 4 -q 2 -lowpass 17 -b 128

Screens:
 
image 
image 
image 
image 
image		
A Haunted House 2013 DVDRiP Xvid-BHRG/www.RARBG.com.txt 45 B
A Haunted House 2013 DVDRiP Xvid-BHRG/A.Haunted.House.2013.DVDRiP.Xvid.-BHRG.avi 735.645 MB
A Haunted House 2013 DVDRiP Xvid-BHRG/A.Haunted.House.2013.DVDRiP.Xvid.-BHRG sample.avi 12.095 MB
Gathering some info...

Register and log in Isohunt and see no captcha anymore!

4000 symbols left
Hash 1e00b51060e24751f8e24db3a647a3d7e9041466

Related torrents for "A Haunted House 2013 DVDRiP Xvid-BHRG"

Torrent search:

dvdrip 2013