imdb
rating

4.8
Before Dawn

Before Dawn (2012)

Horror

Full description
quality   dvdrip x264 hd bd fullhd dvd

Before Dawn 2012 DVDRip XViD juggs

Size 747.03 MB   0 seeders     Added 2013-04-11 22:31:30

Stream torrent
Starting‥ You need BitLord! Get it from BitLord.com
To download or stream you need BitLord. Visit them at BitLord.com
Source : DVDR L-S (Thanks)
 
http://www.imdb.com/title/tt1928123/

Format                                   : AVI
Format/Info                              : Audio Video Interleave
File size                                : 699 MiB
Duration                                 : 1h 22mn
Overall bit rate                         : 1 190 Kbps
Writing library                          : VirtualDub build 32842/release

Video
ID                                       : 0
Format                                   : MPEG-4 Visual
Format profile                           : Advanced Simple@L5
Format settings, BVOP                    : 2
Format settings, QPel                    : No
Format settings, GMC                     : No warppoints
Format settings, Matrix                  : Default (H.263)
Muxing mode                              : Packed bitstream
Codec ID                                 : XVID
Codec ID/Hint                            : XviD
Duration                                 : 1h 22mn
Bit rate                                 : 1 006 Kbps
Width                                    : 640 pixels
Height                                   : 272 pixels
Display aspect ratio                     : 2.25:1
Frame rate                               : 25.000 fps
Color space                              : YUV
Chroma subsampling                       : 4:2:0
Bit depth                                : 8 bits
Scan type                                : Progressive
Compression mode                         : Lossy
Bits/(Pixel*Frame)                       : 0.231
Stream size                              : 591 MiB (85%)
Writing library                          : XviD 1.2.0.dev47 (UTC 2006-11-01)

Audio
ID                                       : 1
Format                                   : MPEG Audio
Format version                           : Version 1
Format profile                           : Layer 3
Mode                                     : Joint stereo
Mode extension                           : MS Stereo
Codec ID                                 : 55
Codec ID/Hint                            : MP3
Duration                                 : 1h 22mn
Bit rate mode                            : Constant
Bit rate                                 : 128 Kbps
Channel(s)                               : 2 channels
Sampling rate                            : 44.1 KHz
Compression mode                         : Lossy
Stream size                              : 75.2 MiB (11%)
Alignment                                : Split accross interleaves
Writing library                          : LAME3.98.2
 
image 
image		
Before Dawn 2012 DVDRip XViD juggs/BeFore Dawn 2012 DVDRip XViD juggs.avi 733.361 MB
Before Dawn 2012 DVDRip XViD juggs/sample.avi 13.668 MB
Gathering some info...

Register and log in Isohunt and see no captcha anymore!

4000 symbols left
Hash 5494def3f11efb59347bbd23e9ab43fbb5da2daa

Related torrents for "Before Dawn 2012 DVDRip XViD juggs"

Torrent search:

dvdrip 2012