imdb
rating

7.8
A Place in the Sun

A Place in the Sun (1951)

Drama, Romance

Full description
quality   hd web-dl h264 web-rip dvdrip

A Place In the Sun [1951] 720p WEBRip H264 AC3 - CODY

Size 1.873 GB   0 seeders     Added 2013-04-12 00:01:25

Stream torrent
Starting‥ You need BitLord! Get it from BitLord.com
To download or stream you need BitLord. Visit them at BitLord.com
General
Complete name                            : A Place In the Sun [1951] 720p WEBRip H264 AC3 - CODY.mp4
Format                                   : MPEG-4
Format profile                           : Base Media
Codec ID                                 : isom
File size                                : 1.74 GiB
Duration                                 : 2h 1mn
Overall bit rate mode                    : Variable
Overall bit rate                         : 2 047 Kbps
Encoded date                             : UTC 2013-02-03 21:04:30

Video
ID                                       : 1
Format                                   : AVC
Format/Info                              : Advanced Video Codec
Format profile                           : High@L4.1
Format settings, CABAC                   : Yes
Format settings, ReFrames                : 5 frames
Codec ID                                 : avc1
Codec ID/Info                            : Advanced Video Coding
Duration                                 : 2h 1mn
Bit rate mode                            : Variable
Bit rate                                 : 1 660 Kbps
Maximum bit rate                         : 20.0 Mbps
Width                                    : 960 pixels
Height                                   : 720 pixels
Display aspect ratio                     : 4:3
Frame rate mode                          : Constant
Frame rate                               : 23.976 fps
Color space                              : YUV
Chroma subsampling                       : 4:2:0
Bit depth                                : 8 bits
Scan type                                : Progressive
Bits/(Pixel*Frame)                       : 0.100
Stream size                              : 1.41 GiB (81%)
Writing library                          : x264 core 125 r2208 d9d2288
Encoding settings                        : rc=2pass
Color primaries                          : Generic film

Audio
ID                                       : 2
Format                                   : AC-3
Format/Info                              : Audio Coding 3
Mode extension                           : CM (complete main)
Format settings, Endianness              : Big
Codec ID                                 : ac-3
Duration                                 : 2h 1mn
Bit rate mode                            : Constant
Bit rate                                 : 384 Kbps
Channel(s)                               : 6 channels
Channel positions                        : Front: L C R, Side: L R, LFE
Sampling rate                            : 48.0 KHz
Bit depth                                : 16 bits
Compression mode                         : Lossy
Delay relative to video                  : 125ms
Stream size                              : 335 MiB (19%)

Audio language                           : English

IMDB link:                                 http://www.imdb.com/title/tt0043924/

Subtitles included                       : English, Portuguese-Brasilian, Romanian,
                                           Spanish

Please seed at least 1,5:1 . This way this torrent has a chance to survive !

Thanks . Enjoy !! 		
				
A Place In the Sun [1951] 720p WEBRip H264 AC3 - CODY/A Place In the Sun [1951] 720p WEBRip H264 AC3 - CODY.English.srt 127.319 KB
A Place In the Sun [1951] 720p WEBRip H264 AC3 - CODY/A Place In the Sun [1951] 720p WEBRip H264 AC3 - CODY.mp4 1.873 GB
A Place In the Sun [1951] 720p WEBRip H264 AC3 - CODY/A Place In the Sun [1951] 720p WEBRip H264 AC3 - CODY.Portuguese-Bra.srt 94.196 KB
Gathering some info...

Register and log in Isohunt and see no captcha anymore!

4000 symbols left
Hash 01a87b2987fc2ae0ae30910e57085b45ac64dea4

Related torrents for "A Place In the Sun [1951] 720p WEBRip H264 AC3 - CODY"

Torrent search:

h264 hd 1951 web-rip