Crazy.Enough.2012.DVDRip.XviD-IGUANA

Size 733.224 MB   0 seeders     Added 2013-04-12 06:47:29

Stream torrent
Starting‥ You need BitLord! Get it from BitLord.com
To download or stream you need BitLord. Visit them at BitLord.com
Supplier:IGUANA           Genre.......:Comedy
Ripper..:IGUANA           Runtime.....:102 min
Format..:XviD             IMDB Rating.:4.1/10
Source..: DVD R1           

Store Date..:04/09/13
Release Date:04/10/13


Format                           : AVI
Format/Info                      : Audio Video Interleave
File size                        : 697 MiB
Duration                         : 1h 42mn
Overall bit rate                 : 952 Kbps
Writing application              : VirtualDubMod 1.5.10.2 (build 2540/release)
Writing library                  : VirtualDubMod build 2540/release

Video
ID                               : 0
Format                           : MPEG-4 Visual
Format profile                   : Advanced Simple@L5
Format settings, BVOP            : 2
Format settings, QPel            : No
Format settings, GMC             : No warppoints
Format settings, Matrix          : Default (H.263)
Muxing mode                      : Packed bitstream
Codec ID                         : XVID
Codec ID/Hint                    : XviD
Duration                         : 1h 42mn
Bit rate                         : 746 Kbps
Width                            : 624 pixels
Height                           : 352 pixels
Display aspect ratio             : 16:9
Frame rate                       : 23.976 fps
Color space                      : YUV
Chroma subsampling               : 4:2:0
Bit depth                        : 8 bits
Scan type                        : Progressive
Compression mode                 : Lossy
Bits/(Pixel*Frame)               : 0.142
Stream size                      : 546 MiB (78%)
Writing library                  : XviD 64

Audio
ID                               : 1
Format                           : MPEG Audio
Format version                   : Version 1
Format profile                   : Layer 3
Mode                             : Joint stereo
Codec ID                         : 55
Codec ID/Hint                    : MP3
Duration                         : 1h 42mn
Bit rate mode                    : Variable
Bit rate                         : 192 Kbps
Channel(s)                       : 2 channels
Sampling rate                    : 48.0 KHz
Compression mode                 : Lossy
Stream size                      : 142 MiB (20%)
Alignment                        : Aligned on interleaves
Interleave, duration             : 24 ms (0.58 video frame)
Interleave, preload duration     : 95 ms
Writing library                  : LAME3.90.
Encoding settings                : -m j -V 4 -q 2 -lowpass 19.6 --abr 192

Screens: 
 
http://imgsure.com/?p=677508 
http://imgsure.com/?p=801913 
http://imgsure.com/?p=474060 
http://imgsure.com/?p=640746		
Crazy.Enough.2012.DVDRip.XviD-IGUANA/Proof/iguana-crazyen.2012.xvid.proof.jpg 2.614 MB
Crazy.Enough.2012.DVDRip.XviD-IGUANA/Torrent downloaded from unhide-torrents.org.NFO 28 B
Crazy.Enough.2012.DVDRip.XviD-IGUANA/iguana-crazyen.2012.xvid.avi 730.595 MB
Gathering some info...

Register and log in Isohunt and see no captcha anymore!

4000 symbols left
Hash 50911596f05f2a8440e0d471369cac8446fd7dc3