imdb
rating

5.6
Judas Kiss

Judas Kiss (2011)

Drama, Science Fiction

Full description
quality   dvdrip x264

Judas Kiss.mp4 Verified

Size 2.241 GB   10 seeders     Added 2013-04-12 10:01:25

Stream torrent
Starting‥ You need BitLord! Get it from BitLord.com
To download or stream you need BitLord. Visit them at BitLord.com
Storyline

Failed filmmaker Zachary Wells is convinced by his best friend and hotshot director Topher into replacing him as a judge in their film school's annual festival. Zach's one-night stand with a student backfires when that student walks into an interview the next morning calling himself Danny Reyes, the name Zach went by when he attended the school. And Danny's film, "Judas Kiss," is a finalist in the competition Zach is judging. Zach's film, also "Judas Kiss," won the festival years before. As Zach scrambles for answers, a mysterious, chain-smoking campus tour guide, counsels him: "Change the kid's past, change your future." But how? Zach comes to believe he can mend his life by disqualifying Danny from competition, putting him on a different path than Zach followed. But will Zach's plan work? 

Format                                   : MPEG-4
Format profile                           : Base Media
Codec ID                                 : isom
File size                                : 2.09 GiB
Duration                                 : 1h 34mn
Overall bit rate mode                    : Variable
Overall bit rate                         : 3 149 Kbps
Writing application                      : Lavf54.4.100

Video
ID                                       : 1
Format                                   : AVC
Format/Info                              : Advanced Video Codec
Format profile                           : High@L4.1
Format settings, CABAC                   : Yes
Format settings, ReFrames                : 4 frames
Codec ID                                 : avc1
Codec ID/Info                            : Advanced Video Coding
Duration                                 : 1h 34mn
Bit rate                                 : 3 000 Kbps
Width                                    : 1 920 pixels
Height                                   : 1 080 pixels
Display aspect ratio                     : 16:9
Frame rate mode                          : Constant
Frame rate                               : 23.976 fps
Color space                              : YUV
Chroma subsampling                       : 4:2:0
Bit depth                                : 8 bits
Scan type                                : Progressive
Bits/(Pixel*Frame)                       : 0.060
Stream size                              : 1.97 GiB (95%)
Writing library                          : x264 core 123
Encoding settings                        : cabac=1 / ref=1 / deblock=1:0:0 / 
Audio
ID                                       : 2
Format                                   : AAC
Format/Info                              : Advanced Audio Codec
Format profile                           : LC
Codec ID                                 : 40
Duration                                 : 1h 34mn
Bit rate mode                            : Variable
Bit rate                                 : 165 Kbps
Maximum bit rate                         : 192 Kbps
Channel(s)                               : 2 channels
Channel positions                        : Front: L R
Sampling rate                            : 48.0 KHz
Compression mode                         : Lossy
Stream size                              : 112 MiB (5%)

		
Judas Kiss.mp4 2.241 GB
Gathering some info...

Register and log in Isohunt and see no captcha anymore!

4000 symbols left
Hash b59e5907f1b90bf2083044d1b3c5d1075aa9a211

Related torrents for "Judas Kiss.mp4"